Tags
Language
Tags
July 2024
Su Mo Tu We Th Fr Sa
30 1 2 3 4 5 6
7 8 9 10 11 12 13
14 15 16 17 18 19 20
21 22 23 24 25 26 27
28 29 30 31 1 2 3

Kokoro ga Sakebitagatterunda (2017) v2 (BD 1080p AV1

Posted By: Otaku
Kokoro ga Sakebitagatterunda (2017) v2 (BD 1080p AV1

Kokoro ga Sakebitagatterunda (2017) v2 (BD 1080p AV1
MKV | 1920x1080 | Français / 日本語 | V_AV1 @ 650 kbps | Opus @ 125.369 kbps | 1 h 59 min | 805 MiB
Subtitles: Français, English



[Trix] Kokoro ga Sakebitagatterunda (2017) v2 (BD 1080p AV1) [DB8DFC2D].mkv (804.9 MB)



General
Unique ID : 242040706529489868949388126385178726433 (0xB617582DA6A708F5DD42883EE1BCD021)
Complete name : ./[Trix] Kokoro ga Sakebitagatterunda (2017) v2 (BD 1080p AV1) [DB8DFC2D].mkv
Format : Matroska
Format version : Version 4
File size : 805 MiB
Duration : 1 h 59 min
Overall bit rate : 943 kb/s
Encoded date : UTC 2024-05-23 11:31:12
Writing application : mkvmerge v82.0 ('I'm The President') 64-bit
Writing library : libebml v1.4.5 + libmatroska v1.7.1
Cover : Yes
Attachments : cover / PPETRIAL.ttf / verdanab.ttf / verdanaz.ttf / #1ICHIRO.OTF / AILERON-REGULAR.OTF / APOLLINE-REGULAR.OTF / BaskervaldADFStd.otf / COMILI-BOOK.OTF / DAXLINEPRO-BOLD.OTF / FOTGAKUMARUGOTHICPROSTRP-B.OTF / FOT-StickStd-B.otf / HKGROTESK-MEDIUM.OTF / JOTIA-MEDIUM.OTF / KozGoPr6N-Bold.otf / KOZUKAMINCHOPROSTRP-B.OTF / MINTSPIRITNO2-BOLD.OTF / MintSpiritNo2-Regular.otf / MyriadPro-SemiboldIt.otf / PENCILPETEFONT.OTF / TSUKUMINPR5-HV.otf / 71MKSD2AM.TTF / ARIALNB.ttf / ARMAGEDAWIDE.TTF / ATAmigoRegular.ttf / AVANTGARDELT-CONDMEDIUM.TTF / AVER.TTF / BELLGOTHICSTD-BLACK.TTF / BERLINSANSFBDEMI-BOLD.TTF / BLAHBLAHBANG.TTF / Boopee Bold.ttf / BOOPEE.TTF / CANYOUEVERSEEAWHOLECIRCLE.TTF / CHANGETOMORROWTODAY.TTF / DJBCHALKITUP.TTF / EncodeSansCondensed-ExtraBold.ttf / EXPRESSWAYRG-REGULAR.TTF / grain.TTF / GRUPPO.TTF / lemon squeezy .ttf / Magra.ttf / MyriadPro-Semibold.ttf / Nunito-Regular.ttf / OLDBOOKSHOP.TTF / PANEFRESCO800WTKILLLAKILL-REGULAR.TTF / PANTON-EXTRABOLD.TTF / PTSerif-Bold.ttf / PTSerif-Italic.ttf / PTSerif-Regular.ttf / RAINSTORMSINJULY.TTF / Roboto-Bold.ttf / Roboto-Light.ttf / Roboto-Regular.ttf / sketchflow-print.ttf / VESTAPRO-BOLD.TTF / whatever it takes bold.ttf / ZAPFHUMANIST601BT-BOLD.TTF / AVER.TTF / BASKERVALDADFSTD-BOLD.OTF / ENCODESANSCONDENSED-BOLD.TTF / GANDHISANS-BOLD.OTF / GANDHISANS-BOLDITALIC.OTF / KOZGOPR6N-BOLD.TTF / KOZUKAMINCHOPR6NM-EN.TTF / LEMONSQUEEZY.TTF / MAGRA.TTF / NUNITO-REGULAR.TTF / ROBOTO-BOLD.TTF / ROBOTO-LIGHT.TTF / ROBOTO-REGULAR.TTF / SEGOEUI-LIGHT.TTF / SKETCHFLOWPRINT.TTF / TSUKUMINPR5-HV.OTF / WHATEVERITTAKES.TTF / ATAMIGO.TTF

Video
ID : 1
Format : AV1
Format/Info : AOMedia Video 1
Format profile : Main@L4.0
Codec ID : V_AV1
Duration : 1 h 59 min
Bit rate : 651 kb/s
Width : 1 920 pixels
Height : 1 080 pixels
Display aspect ratio : 16:9
Frame rate mode : Constant
Frame rate : 23.976 (24000/1001) FPS
Color space : YUV
Chroma subsampling : 4:2:0
Bit depth : 10 bits
Bits/(Pixel*Frame) : 0.013
Stream size : 555 MiB (69%)
Title : By Trix
Language : Japanese
Default : Yes
Forced : No
Color range : Limited

Audio #1
ID : 2
Format : Opus
Codec ID : A_OPUS
Duration : 1 h 59 min
Bit rate : 125 kb/s
Channel(s) : 2 channels
Channel layout : L R
Sampling rate : 48.0 kHz
Frame rate : 50.000 FPS (960 SPF)
Compression mode : Lossy
Stream size : 107 MiB (13%)
Title : Japanese - Opus 2.0
Writing library : Lavf60.16.100
Language : Japanese
Default : Yes
Forced : No
ENCODER_OPTIONS : –bitrate 128

Audio #2
ID : 3
Format : Opus
Codec ID : A_OPUS
Duration : 1 h 59 min
Bit rate : 123 kb/s
Channel(s) : 2 channels
Channel layout : L R
Sampling rate : 48.0 kHz
Frame rate : 50.000 FPS (960 SPF)
Compression mode : Lossy
Stream size : 105 MiB (13%)
Title : French - Opus 2.0
Language : French
Default : Yes
Forced : No

Text #1
ID : 4
Format : ASS
Muxing mode : zlib
Codec ID : S_TEXT/ASS
Codec ID/Info : Advanced Sub Station Alpha
Duration : 1 h 59 min
Bit rate : 6 736 b/s
Frame rate : 3.342 FPS
Count of elements : 23872
Compression mode : Lossless
Stream size : 5.74 MiB (1%)
Title : Full [GJM]
Language : English
Default : Yes
Forced : No

Text #2
ID : 5
Format : ASS
Muxing mode : zlib
Codec ID : S_TEXT/ASS
Codec ID/Info : Advanced Sub Station Alpha
Duration : 1 h 59 min
Bit rate : 5 904 b/s
Frame rate : 3.171 FPS
Count of elements : 22652
Compression mode : Lossless
Stream size : 5.03 MiB (1%)
Title : Full [matheousse]
Language : French
Default : Yes
Forced : No

Text #3
ID : 6
Format : ASS
Muxing mode : zlib
Codec ID : S_TEXT/ASS
Codec ID/Info : Advanced Sub Station Alpha
Duration : 1 h 58 min
Bit rate : 5 803 b/s
Frame rate : 2.915 FPS
Count of elements : 20763
Compression mode : Lossless
Stream size : 4.93 MiB (1%)
Title : Forced (Kazé)
Language : French
Default : No
Forced : Yes

Menu #1
00:00:00.000 : :Intro
00:07:18.271 : :Main Movie
01:54:36.578 : :Ending

Menu #2
00:00:00.000 : :Avant
00:07:18.271 : :Part A
00:15:35.560 : :Part B
00:21:47.848 : :Part C
00:26:22.080 : :Part D
00:30:40.130 : :Part E
00:35:54.402 : :Part F
00:39:22.860 : :Part G
00:49:22.960 : :Part H
00:57:54.054 : :Part I
01:06:36.367 : :Part J
01:12:33.015 : :Part K
01:21:58.372 : :Part L
01:27:37.043 : :Part M
01:35:06.284 : :Part N
01:44:28.012 : :Part O
01:54:41.291 : :ED





Kokoro ga Sakebitagatterunda (2017) v2 (BD 1080p AV1


Kokoro ga Sakebitagatterunda (2017) v2 (BD 1080p AV1


Kokoro ga Sakebitagatterunda (2017) v2 (BD 1080p AV1


Kokoro ga Sakebitagatterunda (2017) v2 (BD 1080p AV1