Tags
Language
Tags

Billy Taylor - OK Billy! (1970/2021) [Official Digital Download 24/192]

Posted By: pyatak
Billy Taylor - OK Billy! (1970/2021) [Official Digital Download 24/192]

Billy Taylor - OK Billy! (1970/2021) [Official Digital Download 24/192]
FLAC (tracks) 24-bit/192 kHz | Front Cover | Time - 36:42 minutes | 1,4 GB
Jazz | Label: Arista - Legacy, Official Digital Download

Billy Taylor (July 24, 1921 – December 28, 2010) was an American jazz pianist, composer, broadcaster and educator. He was the Robert L. Jones Distinguished Professor of Music at East Carolina University in Greenville, and from 1994 was the artistic director for jazz at the John F. Kennedy Center for the Performing Arts in Washington, D.C.

A jazz activist, Taylor sat on the Honorary Founders Board of The Jazz Foundation of America, an organisation he started in 1989, with Ann Ruckert, Herb Storfer and Phoebe Jacobs, to save the homes and the lives of America's elderly jazz and blues musicians, later including musicians who survived Hurricane Katrina.

Taylor was also a jazz educator, who lectured in colleges, served on panels and travelled worldwide as a jazz ambassador. Critic Leonard Feather once said, "It is almost indisputable that Dr. Billy Taylor is the world's foremost spokesman for jazz."

TRACKLIST

1. Billy Taylor - By George - It's the David Frost Theme
2. Billy Taylor - O.K. Billy
3. Billy Taylor - Somewhere Soon
4. Billy Taylor - Tell Me Why
5. Billy Taylor - Dirty Ole Man
6. Billy Taylor - If You Really Are Concerned Then Show It
7. Billy Taylor - Break-a-way
8. Billy Taylor - After Love, Emptiness

foobar2000 1.6.2 / Dynamic Range Meter 1.1.1
log date: 2021-03-30 09:39:32

––––––––––––––––––––––––––––––––––––––––
Analyzed: Billy Taylor / OK Billy!
––––––––––––––––––––––––––––––––––––––––

DR Peak RMS Duration Track
––––––––––––––––––––––––––––––––––––––––
DR10 -0.72 dB -13.29 dB 2:45 01-By George - It's the David Frost Theme
DR10 -0.72 dB -12.81 dB 6:08 02-O.K. Billy
DR13 -0.72 dB -16.40 dB 5:15 03-Somewhere Soon
DR11 -0.72 dB -14.40 dB 4:27 04-Tell Me Why
DR11 -0.72 dB -13.26 dB 3:40 05-Dirty Ole Man
DR14 -0.72 dB -18.12 dB 4:38 06-If You Really Are Concerned Then Show It
DR11 -0.72 dB -12.92 dB 3:49 07-Break-a-way
DR14 -0.72 dB -17.05 dB 6:02 08-After Love, Emptiness
––––––––––––––––––––––––––––––––––––––––

Number of tracks: 8
Official DR value: DR12

Samplerate: 192000 Hz
Channels: 2
Bits per sample: 24
Bitrate: 5185 kbps
Codec: FLAC
================================================================================



Thanks to the Original customer.