Tags
Language
Tags

Carlos Franzetti - In the Wee Small Hours (2022) [Official Digital Download 24/96]

Posted By: pyatak
Carlos Franzetti - In the Wee Small Hours (2022) [Official Digital Download 24/96]

Carlos Franzetti - In the Wee Small Hours (2022) [Official Digital Download 24/96]
FLAC (tracks) 24-bit/44.1 kHz | Front Cover | Time - 56:17 minutes | 1,16 GB
Jazz | Label: Sunnyside, Official Digital Download

The world at large has experienced a life altering event throughout the COVID-19 pandemic, the effects of which have touched nearly everyone in some way. There hasn’t been as far-reaching an event since the Second World War in terms of emotional impact on the population. Carlos Franzetti has turned to the optimistic torch songs of the 1940s and 1950s to bring listeners out of their pandemic induced gloom on his new recording, In The Wee Small Hours.

The great Argentine-American pianist, composer, and arranger experienced the full brunt of COVID-19’s destructive energies during the pandemic. Franzetti contracted the COVID virus. One of the effects of his infection was a loss of coordination, leading to several falls. When he couldn’t remember the changes to “All the Things You Are”, he knew something was wrong. CAT scans showed a subdural hematoma.

Three brain surgeries and months of physical rehabilitation brought Franzetti’s coordination back. He also saw firsthand what the solitude of quarantine meant, as he wasn’t allowed to see anybody, including his wife, for 10 days while he recovered in the hospital.

Once he was able, Franzetti felt motivated to not only prove his musical chops were still there, but he also wanted to make music emblematic of the struggles that people had gone through during this unforgettable time. Franzetti brought longtime collaborator, bassist David Finck, and the excellent drummer Billy Drummond in for a recording session at 360 Sound Studio in Orange, New Jersey in late May 2021.

TRACKLIST

01. Carlos Franzetti - In the Wee Small Hours of the Morning
02. Carlos Franzetti - Memories of You
03. Carlos Franzetti - How Deep Is the Ocean
04. Carlos Franzetti - How Long Has This Been Going On
05. Carlos Franzetti - Put On a Happy Face
06. Carlos Franzetti - Time Remembered
07. Carlos Franzetti - I'll Be Seeing You
08. Carlos Franzetti - Alone Together
09. Carlos Franzetti - How Deep Is the Ocean (Alternate)
10. Carlos Franzetti - In the Wee Small Hours of the Morning (Alternate)
11. Carlos Franzetti - Memories of You (Alternate)
12. Carlos Franzetti - Piccola Musica Nocturna

foobar2000 1.6.2 / Dynamic Range Meter 1.1.1
log date: 2022-01-28 02:13:23

––––––––––––––––––––––––––––––––––––––––
Analyzed: Carlos Franzetti / In the Wee Small Hours
––––––––––––––––––––––––––––––––––––––––

DR Peak RMS Duration Track
––––––––––––––––––––––––––––––––––––––––
DR11 -0.23 dB -15.58 dB 3:53 01-In the Wee Small Hours of the Morning
DR11 -0.22 dB -12.69 dB 4:27 02-Memories of You
DR10 -0.07 dB -11.83 dB 3:48 03-How Deep Is the Ocean
DR11 -0.26 dB -13.59 dB 6:50 04-How Long Has This Been Going On
DR10 -0.20 dB -11.96 dB 4:03 05-Put On a Happy Face
DR10 -0.11 dB -12.58 dB 5:11 06-Time Remembered
DR11 -0.31 dB -14.38 dB 6:37 07-I'll Be Seeing You
DR9 0.00 dB -11.25 dB 4:51 08-Alone Together
DR10 -0.18 dB -12.60 dB 4:03 09-How Deep Is the Ocean (Alternate)
DR11 -0.24 dB -14.87 dB 3:57 10-In the Wee Small Hours of the Morning (Alternate)
DR11 -0.16 dB -13.44 dB 4:42 11-Memories of You (Alternate)
DR9 -0.32 dB -11.48 dB 3:54 12-Piccola Musica Nocturna
––––––––––––––––––––––––––––––––––––––––

Number of tracks: 12
Official DR value: DR10

Samplerate: 96000 Hz
Channels: 2
Bits per sample: 24
Bitrate: 2702 kbps
Codec: FLAC
================================================================================



Thanks to the Original customer.