Chor des Bayerischen Rundfunks - Elgar - Partsongs & From the Bavarian Highlands (2021) [Official Digital Download]

Posted By: pyatak
Chor des Bayerischen Rundfunks - Elgar - Partsongs & From the Bavarian Highlands (2021) [Official Digital Download]

Chor des Bayerischen Rundfunks - Elgar - Partsongs & From the Bavarian Highlands (2021) [Official Digital Download]
FLAC (tracks) 24-bit/48 kHz | Front Cover | Time - 65:37 minutes | 644 MB
Classical | Label: BR-Klassik, Official Digital Download

The Bavarian Radio Chorus conducted by Howard Arman sings Edward Elgar's song cycle "From the Bavarian Highlands" in the first version for piano accompaniment on this CD from BR-KLASSIK in a live recording of a oncert on October 26, 2019 in the Herkulessaal of the Munich Residenz.
The remaining partsongs by Edward Elgar heard on this CD were recorded in the BR studio between July and September 2020.

TRACKLIST

01. Chor des Bayerischen Rundfunks, Max Hanft & Howard Arman - From the Bavarian Highlands The Dance
02. Chor des Bayerischen Rundfunks, Max Hanft & Howard Arman - From the Bavarian Highlands False Love
03. Chor des Bayerischen Rundfunks, Max Hanft & Howard Arman - From the Bavarian Highlands Lullaby
04. Chor des Bayerischen Rundfunks, Max Hanft & Howard Arman - From the Bavarian Highlands Aspiration
05. Chor des Bayerischen Rundfunks, Max Hanft & Howard Arman - From the Bavarian Highlands On the Alm
06. Chor des Bayerischen Rundfunks, Max Hanft & Howard Arman - From the Bavarian Highlands The Marksmen
07. Chor des Bayerischen Rundfunks, Radoslaw Szulc, Julita Smoleń, Max Hanft & Howard Arman - The Snow
08. Chor des Bayerischen Rundfunks, Radoslaw Szulc, Julita Smoleń, Max Hanft & Howard Arman - Fly, Singing Bird
09. Chor des Bayerischen Rundfunks & Howard Arman - Yea, Cast Me from Heights
10. Chor des Bayerischen Rundfunks & Howard Arman - Whether I Find Thee
11. Chor des Bayerischen Rundfunks & Howard Arman - After Many a Dusty Mile
12. Chor des Bayerischen Rundfunks & Howard Arman - It’s oh! To Be a Wild Wind
13. Chor des Bayerischen Rundfunks & Howard Arman - Feasting I Watch
14. Chor des Bayerischen Rundfunks & Howard Arman - Go, Song of Mine
15. Chor des Bayerischen Rundfunks, Max Hanft & Howard Arman - As Torrents in Summer - Scenes from the Saga of King Olaf
16. Chor des Bayerischen Rundfunks, Radoslaw Szulc, Julita Smoleń, Max Hanft & Howard Arman - Spanish Serenade
17. Chor des Bayerischen Rundfunks & Howard Arman - The Reveille
18. Chor des Bayerischen Rundfunks & Howard Arman - They Are at Rest
19. Chor des Bayerischen Rundfunks, Max Hanft & Howard Arman - Weary Wind of the West
20. Chor des Bayerischen Rundfunks & Howard Arman - The Prince of Sleep

foobar2000 1.6.1 / Dynamic Range Meter 1.1.1
log date: 2021-01-13 22:35:10

––––––––––––––––––––––––––––––––––––––––
Analyzed: Chor des Bayerischen Rundfunks & Howard Arman / Edward Elgar: Partsongs - From the Bavarian Highlands (1-9)
Chor des Bayerischen Rundfunks, Max Hanft & Howard Arman / Edward Elgar: Partsongs - From the Bavarian Highlands (10-17)
Chor des Bayerischen Rundfunks, Radoslaw Szulc, Julita Smoleń, Max Hanft & Howard Arman / Edward Elgar: Partsongs - From the Bavarian Highlands (18-20)
––––––––––––––––––––––––––––––––––––––––

DR Peak RMS Duration Track
––––––––––––––––––––––––––––––––––––––––
DR16 -0.65 dB -22.48 dB 1:28 09-Yea, Cast Me from Heights
DR12 -4.99 dB -24.71 dB 1:01 10-Whether I Find Thee
DR13 -7.57 dB -24.88 dB 1:38 11-After Many a Dusty Mile
DR14 -7.37 dB -26.85 dB 0:59 12-It’s oh! To Be a Wild Wind
DR12 -2.89 dB -20.50 dB 2:08 13-Feasting I Watch
DR13 -0.66 dB -19.09 dB 4:08 14-Go, Song of Mine
DR13 -0.89 dB -19.74 dB 6:02 17-The Reveille
DR12 -2.29 dB -22.43 dB 3:33 18-They Are at Rest
DR15 -3.89 dB -24.24 dB 4:27 20-The Prince of Sleep
DR13 -0.65 dB -17.88 dB 3:42 01-From the Bavarian Highlands The Dance
DR15 -2.05 dB -24.54 dB 3:41 02-From the Bavarian Highlands False Love
DR14 -5.58 dB -25.39 dB 3:18 03-From the Bavarian Highlands Lullaby
DR16 -0.66 dB -23.94 dB 3:13 04-From the Bavarian Highlands Aspiration
DR14 -1.10 dB -22.98 dB 3:34 05-From the Bavarian Highlands On the Alm
DR13 -0.65 dB -17.81 dB 5:43 06-From the Bavarian Highlands The Marksmen
DR12 -3.19 dB -21.98 dB 2:12 15-As Torrents in Summer - Scenes from the Saga of King Olaf
DR13 -0.66 dB -19.83 dB 3:15 19-Weary Wind of the West
DR13 -0.66 dB -19.09 dB 4:32 07-The Snow
DR12 -0.65 dB -17.84 dB 3:18 08-Fly, Singing Bird
DR12 -1.56 dB -19.57 dB 3:43 16-Spanish Serenade
––––––––––––––––––––––––––––––––––––––––

Number of tracks: 20
Official DR value: DR13

Samplerate: 48000 Hz
Channels: 2
Bits per sample: 24
Bitrate: 1458 kbps
Codec: FLAC
================================================================================



Thanks to the Original customer.