Tags
Language
Tags

Elisabeth Leonskaja - Schubert- Piano Sonatas, D. 784 & 894 (2022) [Official Digital Download 24/96]

Posted By: pyatak
Elisabeth Leonskaja - Schubert- Piano Sonatas, D. 784 & 894 (2022) [Official Digital Download 24/96]

Elisabeth Leonskaja - Schubert- Piano Sonatas, D. 784 & 894 (2022) [Official Digital Download 24/96]
FLAC (tracks) 24-bit/96 kHz | Front Cover | Time - 66:09 minutes | 1,22 GB
Classical | Studio Master, Official Digital Download

Here is the next issue of Leonskaja’s recent complete cycle of Schubert’s sonatas. Now we are heading to the high D catalog numbers, only absolute masterworks of the piano repertoire from the late and most creative period of Schubert’s composing remain! This volume includes the harrowing fourteenth and the eighteenth, the last published during Schubert’s lifetime.

TRACKLIST

1. Elisabeth Leonskaja - Piano Sonata No. 14 in A Minor, Op. Posth. 143, D. 784 "Grande sonate": I. Allegro giusto
2. Elisabeth Leonskaja - Piano Sonata No. 14 in A Minor, Op. Posth. 143, D. 784 "Grande sonate": II. Andante
3. Elisabeth Leonskaja - Piano Sonata No. 14 in A Minor, Op. Posth. 143, D. 784 "Grande sonate": III. Allegro vivace
4. Elisabeth Leonskaja - Piano Sonata No. 18 in G Major, Op. 78, D. 894: I. Molto moderato e cantabile
5. Elisabeth Leonskaja - Piano Sonata No. 18 in G Major, Op. 78, D. 894: II. Andante
6. Elisabeth Leonskaja - Piano Sonata No. 18 in G Major, Op. 78, D. 894: III. Menuetto. Allegro moderato - Trio
7. Elisabeth Leonskaja - Piano Sonata No. 18 in G Major, Op. 78, D. 894: IV. Allegretto

foobar2000 1.6.2 / Dynamic Range Meter 1.1.1
log date: 2022-07-01 13:39:56

––––––––––––––––––––––––––––––––––––––––
Analyzed: Elisabeth Leonskaja / Schubert: Piano Sonatas, D. 784 & 894
––––––––––––––––––––––––––––––––––––––––

DR Peak RMS Duration Track
––––––––––––––––––––––––––––––––––––––––
DR14 -0.20 dB -19.52 dB 12:28 01-Piano Sonata No. 14 in A Minor, Op. Posth. 143, D. 784 "Grande sonate": I. Allegro giusto
DR14 -1.02 dB -22.72 dB 4:21 02-Piano Sonata No. 14 in A Minor, Op. Posth. 143, D. 784 "Grande sonate": II. Andante
DR12 -0.20 dB -17.79 dB 5:47 03-Piano Sonata No. 14 in A Minor, Op. Posth. 143, D. 784 "Grande sonate": III. Allegro vivace
DR16 -0.20 dB -22.65 dB 20:14 04-Piano Sonata No. 18 in G Major, Op. 78, D. 894: I. Molto moderato e cantabile
DR15 -0.20 dB -22.77 dB 9:15 05-Piano Sonata No. 18 in G Major, Op. 78, D. 894: II. Andante
DR13 -0.97 dB -20.39 dB 4:57 06-Piano Sonata No. 18 in G Major, Op. 78, D. 894: III. Menuetto. Allegro moderato - Trio
DR14 -1.43 dB -20.16 dB 9:08 07-Piano Sonata No. 18 in G Major, Op. 78, D. 894: IV. Allegretto
––––––––––––––––––––––––––––––––––––––––

Number of tracks: 7
Official DR value: DR14

Samplerate: 96000 Hz
Channels: 2
Bits per sample: 24
Bitrate: 2606 kbps
Codec: FLAC
================================================================================



Thanks to the Original customer.