Tags
Language
Tags

Giacomo Gates - You (2022) [Official Digital Download]

Posted By: pyatak
Giacomo Gates - You (2022) [Official Digital Download]

Giacomo Gates - You (2022) [Official Digital Download]
FLAC (tracks) 24-bit/48 kHz | Front Cover | Time - 50:21 minutes | 541 MB
Vocal Jazz | Label: Savant, Official Digital Download

Jazz vocalist Giacomo Gates is blessed with a smooth and supremely expressive baritone voice and an all-inclusive musicality which encompasses a hipster-like coolness, a smattering of vocalese, an Eckstine-like seductiveness, the story telling ability of a griot, a firm footing in the blues and a sense of swing which is second-to-none. His performances can be quiet and full of insight (or innuendo) or be ebullient and joyful. Whatever style Gates may offer - be it sensitive, sensuous or syncopated - he infuses the music with an understated humor, wry cultural and social implications and an impish delight in surprising his listeners. You is a perfect example of Gates at his best with the vocalist putting together a program with a unique and decidedly altruistic leitmotiv. As Gates himself says, "The context of many songs written and recorded, are composed by people with 'I' problems… but not these songs. All of these songs are about you." Here are 18 songs everybody knows and loves, arranged with creativity and wit and featuring Gates' gregarious delivery so that there can be no mistake, "it's all about you!"

TRACKLIST

01. Giacomo Gates - Exactly Like You
02. Giacomo Gates - I Can't Give You Anything But Love
03. Giacomo Gates - With Plenty of Money and You
04. Giacomo Gates - I Didn't Know About You
05. Giacomo Gates - The Nearness of You
06. Giacomo Gates - It Had to Be You
07. Giacomo Gates - I Thought About You
08. Giacomo Gates - I Want to Talk About You
09. Giacomo Gates - I Mean You
10. Giacomo Gates - P.S. I Love You
11. Giacomo Gates - Are You Havin' Fun Yet?
12. Giacomo Gates - I Remember You
13. Giacomo Gates - You're Blasé
14. Giacomo Gates - Everything But You
15. Giacomo Gates - You've Changed
16. Giacomo Gates - Since I Fell for You
17. Giacomo Gates - I've Got News for You
18. Giacomo Gates - You Never Miss the Water 'Till the Well Runs Dry

foobar2000 1.6.2 / Dynamic Range Meter 1.1.1
log date: 2022-01-27 20:24:11

––––––––––––––––––––––––––––––––––––––––
Analyzed: Giacomo Gates / You
––––––––––––––––––––––––––––––––––––––––

DR Peak RMS Duration Track
––––––––––––––––––––––––––––––––––––––––
DR9 -0.90 dB -12.02 dB 2:33 01-Exactly Like You
DR10 -0.90 dB -14.31 dB 2:31 02-I Can't Give You Anything But Love
DR10 -0.90 dB -12.66 dB 1:47 03-With Plenty of Money and You
DR11 -0.90 dB -15.35 dB 2:22 04-I Didn't Know About You
DR9 -0.90 dB -13.24 dB 3:16 05-The Nearness of You
DR9 -0.90 dB -12.99 dB 1:52 06-It Had to Be You
DR10 -0.90 dB -13.18 dB 1:53 07-I Thought About You
DR11 -0.90 dB -15.14 dB 2:38 08-I Want to Talk About You
DR10 -0.90 dB -12.74 dB 2:13 09-I Mean You
DR13 -0.90 dB -17.11 dB 3:11 10-P.S. I Love You
DR10 -0.90 dB -13.29 dB 2:16 11-Are You Havin' Fun Yet?
DR12 -0.90 dB -15.59 dB 3:25 12-I Remember You
DR12 -0.90 dB -15.48 dB 4:40 13-You're Blasé
DR11 -0.90 dB -14.02 dB 2:31 14-Everything But You
DR12 -0.90 dB -16.04 dB 2:30 15-You've Changed
DR10 -0.90 dB -15.93 dB 4:34 16-Since I Fell for You
DR10 -0.90 dB -13.35 dB 3:41 17-I've Got News for You
DR10 -0.90 dB -13.63 dB 2:28 18-You Never Miss the Water 'Till the Well Runs Dry
––––––––––––––––––––––––––––––––––––––––

Number of tracks: 18
Official DR value: DR10

Samplerate: 48000 Hz
Channels: 2
Bits per sample: 24
Bitrate: 1531 kbps
Codec: FLAC
================================================================================



Thanks to the Original customer.