Tags
Language
Tags

Jarkka Rissanen & Timo Ylinen - Long Time Coming (2022) [Official Digital Download]

Posted By: pyatak
Jarkka Rissanen & Timo Ylinen - Long Time Coming (2022) [Official Digital Download]

Jarkka Rissanen & Timo Ylinen - Long Time Coming (2022) [Official Digital Download]
FLAC (tracks) 24-bit/44.1 kHz | Front Cover | Time - 45:12 minutes | 494 MB
Blues | Label: Eclipse Music - Supersounds Music Oy, Official Digital Download

On the new album Long Time Coming, you can hear how the band deftly combines its various blues influences from Mississippi delta to Chicago blues, yet at the same time their fearless music sprawls upwards and into many different directions. The upcoming album is a varied and unified whole filled with electric guitar music in which mood trumps technical virtuosity.

TRACKLIST

01. Jarkka Rissanen - Rowboat
02. Jarkka Rissanen - Looking into You
03. Jarkka Rissanen - Corinna, Corinna
04. Jarkka Rissanen - That Day is Done
05. Jarkka Rissanen - Copper Kettle
06. Jarkka Rissanen - Losin' End
07. Jarkka Rissanen - You Win Again
08. Jarkka Rissanen - It's so Hard
09. Jarkka Rissanen - For What It's Worth
10. Jarkka Rissanen - Questions
11. Jarkka Rissanen - One Monkey
12. Jarkka Rissanen - Long Time Gone

foobar2000 1.6.2 / Dynamic Range Meter 1.1.1
log date: 2022-01-28 02:23:22

––––––––––––––––––––––––––––––––––––––––
Analyzed: Jarkka Rissanen / Long Time Coming
––––––––––––––––––––––––––––––––––––––––

DR Peak RMS Duration Track
––––––––––––––––––––––––––––––––––––––––
DR9 -0.50 dB -11.11 dB 3:47 01-Rowboat
DR10 -0.50 dB -12.01 dB 3:45 02-Looking into You
DR10 -0.50 dB -12.80 dB 3:42 03-Corinna, Corinna
DR10 -0.50 dB -11.57 dB 3:13 04-That Day is Done
DR10 -0.50 dB -12.31 dB 3:55 05-Copper Kettle
DR9 -1.74 dB -13.43 dB 2:55 06-Losin' End
DR10 -0.50 dB -11.88 dB 3:38 07-You Win Again
DR9 -1.01 dB -12.09 dB 2:11 08-It's so Hard
DR9 -0.50 dB -11.34 dB 4:05 09-For What It's Worth
DR8 -0.50 dB -9.48 dB 3:06 10-Questions
DR9 -0.50 dB -10.98 dB 6:06 11-One Monkey
DR8 -0.50 dB -9.93 dB 4:51 12-Long Time Gone
––––––––––––––––––––––––––––––––––––––––

Number of tracks: 12
Official DR value: DR9

Samplerate: 44100 Hz
Channels: 2
Bits per sample: 24
Bitrate: 1547 kbps
Codec: FLAC
================================================================================



Thanks to the Original customer.