Tags
Language
Tags

Julia MacLaine - Preludes (2022) [Official Digital Download 24/192]

Posted By: pyatak
Julia MacLaine - Preludes (2022) [Official Digital Download 24/192]

Julia MacLaine - Preludes (2022) [Official Digital Download 24/192]
FLAC (tracks) 24-bit/192 kHz | Front Cover | Time - 64:07 minutes | 2,38 GB
Classical | Label: Groupe Analekta, Inc, Official Digital Download

It is enriching to have both early music and contemporary works on your lectern. By imagining that early music is new, we free ourselves from traditions and discover current ideas and renewed meaning. Assuming that the new music is old, a certain reverence sets in as well as a trust in the composer and a feeling of devotion to him.

But how to express in a single album his roots in classical music, his love of Bach and his enthusiasm for contemporary music? I remembered a concert given at Juilliard by Bonnie Hampton: she played the six Bach preludes interspersed with a contemporary work for solo cello. I was inspired by her and, with the support of the Canada Council for the Arts, I asked six Canadian composers to write cello pieces in response to Bach's preludes.

TRACKLIST

01. Julia MacLaine - Suite No. 1 for Cello in G Major, BWV 1007: I. Prelude
02. Julia MacLaine - Praeludium for Cello in G Major, Op. 69
03. Julia MacLaine - Suite No. 2 for Cello in D Minor, BWV 1008: I. Prelude
04. Julia MacLaine - Sarasaraahat
05. Julia MacLaine - Suite No. 3 for Cello in C Major, BWV 1009: I. Prelude
06. Julia MacLaine - Play Time
07. Julia MacLaine - Suite No. 4 for Cello in E-Flat Major, BWV 1010: I. Prelude
08. Julia MacLaine - Prayers for Ruins
09. Julia MacLaine - Suite No. 5 for Cello in C Minor, BWV 1011: I. Prelude
10. Julia MacLaine - LAND BACH
11. Julia MacLaine - Suite No. 6 for Cello in D Major, BWV 1012: I. Prelude
12. Julia MacLaine - No. 6 Post Bach

foobar2000 1.6.2 / Dynamic Range Meter 1.1.1
log date: 2022-01-28 02:07:33

––––––––––––––––––––––––––––––––––––––––
Analyzed: Julia MacLaine / Preludes
––––––––––––––––––––––––––––––––––––––––

DR Peak RMS Duration Track
––––––––––––––––––––––––––––––––––––––––
DR12 -1.26 dB -18.73 dB 2:34 01-Suite No. 1 for Cello in G Major, BWV 1007: I. Prelude
DR14 -0.50 dB -18.35 dB 6:16 02-Praeludium for Cello in G Major, Op. 69
DR12 -3.47 dB -19.69 dB 3:36 03-Suite No. 2 for Cello in D Minor, BWV 1008: I. Prelude
DR15 -1.04 dB -25.43 dB 6:33 04-Sarasaraahat
DR12 -2.25 dB -18.82 dB 3:48 05-Suite No. 3 for Cello in C Major, BWV 1009: I. Prelude
DR13 -1.59 dB -20.71 dB 7:26 06-Play Time
DR12 -2.33 dB -18.57 dB 3:56 07-Suite No. 4 for Cello in E-Flat Major, BWV 1010: I. Prelude
DR14 -0.53 dB -18.99 dB 6:55 08-Prayers for Ruins
DR12 -2.41 dB -18.77 dB 6:27 09-Suite No. 5 for Cello in C Minor, BWV 1011: I. Prelude
DR13 -0.50 dB -18.32 dB 6:36 10-LAND BACH
DR12 -0.50 dB -15.72 dB 4:52 11-Suite No. 6 for Cello in D Major, BWV 1012: I. Prelude
DR13 0.00 dB -16.82 dB 5:09 12-No. 6 Post Bach
––––––––––––––––––––––––––––––––––––––––

Number of tracks: 12
Official DR value: DR13

Samplerate: 192000 Hz
Channels: 2
Bits per sample: 24
Bitrate: 5408 kbps
Codec: FLAC
================================================================================



Thanks to the Original customer.