Tags
Language
Tags

Katie Henry - On My Way (2022) [Official Digital Download]

Posted By: pyatak
Katie Henry - On My Way (2022) [Official Digital Download]

Katie Henry - On My Way (2022) [Official Digital Download]
FLAC (tracks) 24-bit/44.1 kHz | Front Cover | Time - 38:12 minutes | 422 MB
Blues | Label: Ruf Records, Official Digital Download

NJ born singer/songwriter and multi instrumentalist Katie Henry has been running nonstop in support of her IBMA and Blues Blast nominated debut album 'High Road' and she is not slowing down. Katie and her band have been bringing their unique blend of blues influenced music to the people from one coast to the other. From her musical upbringing in the mountains of North Jersey to cutting her teeth in the New York City circuit, Katie channels all of her experience into her own distinctive sound. Whether she is crafting lyrics and melodies, soloing on her Gibson SG guitar, tickling the keys, or belting out her favorite blues songs, Katie shows that her music has no limits.

TRACKLIST

01. Katie Henry - On My Way
02. Katie Henry - Empty Cup
03. Katie Henry - Without a Fight
04. Katie Henry - Bury You
05. Katie Henry - Setting Sun
06. Katie Henry - Got Me Good
07. Katie Henry - Blessings
08. Katie Henry - Too Long
09. Katie Henry - Running Round
10. Katie Henry - Catch Me If You Can

foobar2000 1.6.2 / Dynamic Range Meter 1.1.1
log date: 2022-01-27 20:07:52

––––––––––––––––––––––––––––––––––––––––
Analyzed: Katie Henry / On My Way
––––––––––––––––––––––––––––––––––––––––

DR Peak RMS Duration Track
––––––––––––––––––––––––––––––––––––––––
DR8 -0.52 dB -10.61 dB 3:10 01-On My Way
DR8 -0.52 dB -9.79 dB 4:07 02-Empty Cup
DR9 -0.52 dB -10.65 dB 3:21 03-Without a Fight
DR8 -0.52 dB -9.97 dB 4:28 04-Bury You
DR10 -0.52 dB -13.16 dB 4:24 05-Setting Sun
DR8 -0.52 dB -10.47 dB 3:05 06-Got Me Good
DR10 -0.52 dB -12.87 dB 4:13 07-Blessings
DR9 -0.52 dB -11.21 dB 4:15 08-Too Long
DR9 -0.51 dB -11.88 dB 4:05 09-Running Round
DR8 -0.52 dB -10.16 dB 3:05 10-Catch Me If You Can
––––––––––––––––––––––––––––––––––––––––

Number of tracks: 10
Official DR value: DR9

Samplerate: 44100 Hz
Channels: 2
Bits per sample: 24
Bitrate: 1559 kbps
Codec: FLAC
================================================================================



Thanks to the Original customer.