Tags
Language
Tags

Mark Lockheart - Dreamers (2022) [Official Digital Download 24/96]

Posted By: pyatak
Mark Lockheart - Dreamers (2022) [Official Digital Download 24/96]

Mark Lockheart - Dreamers (2022) [Official Digital Download 24/96]
FLAC (tracks) 24-bit/96 kHz | Front Cover | Time - 53:48 minutes | 1013 MB
Jazz | Label: Edition Records, Official Digital Download

Dreamers is the new project from the legendary British saxophonist and composer Mark Lockheart featuring Elliot Galvin (Dinosaur, Elliot Galvin Trio), Tom Herbert (Polar Bear, The Invisible) and Dave Smith (Robert Plant). Stylistically free and psychedelic in nature, the release of Dreamers signals a new trajectory for the musician who has already featured on a wide ranging and diverse catalogue of albums including Radiohead’s Kid A. As a founding member of Loose Tubes and Polar Bear, Mark Lockheart has always remained ahead of the curve and has constantly explored new directions in his own music. Dreamers epitomises this adaptation and evolution, allowing the music to speak beyond the boundaries of genre and predictability. Mark has created an album which is direct and unpretentious but also surprising and unexpected.

As Mark explains: “The grooves, the sonics and the musical character of each piece are all hugely important. The process of writing music for these musicians led me into a new sound world that’s very different from anything I’d done before”.

“I wanted this music to be unfussy and direct, but also unpredictable and surprising. The writing happened quickly for this album – my only intention being not to be restricted by style or genre. Of course there are influences and with hindsight I can hear many of them, John Zorn, Burt Bacharach, Ellington and Kraftwerk are all here, not sure how, perhaps they were all in one of my dreams!”

TRACKLIST

01. Mark Lockheart - Dreamers
02. Mark Lockheart - Weird Weather
03. Mark Lockheart - Jagdish
04. Mark Lockheart - King of the World (Jagdish reprise)
05. Mark Lockheart - Gangster Rat
06. Mark Lockheart - Nature V Nurture
07. Mark Lockheart - Fluorescences
08. Mark Lockheart - Marmalade Skies
09. Mark Lockheart - Mirage
10. Mark Lockheart - Sixteen
11. Mark Lockheart - Dream Weaver
12. Mark Lockheart - Mingle Tingle

foobar2000 1.6.2 / Dynamic Range Meter 1.1.1
log date: 2022-01-28 02:46:08

––––––––––––––––––––––––––––––––––––––––
Analyzed: Mark Lockheart / Dreamers
––––––––––––––––––––––––––––––––––––––––

DR Peak RMS Duration Track
––––––––––––––––––––––––––––––––––––––––
DR8 -0.80 dB -10.85 dB 5:28 01-Dreamers
DR9 -0.80 dB -12.16 dB 6:41 02-Weird Weather
DR9 -0.80 dB -12.05 dB 2:28 03-Jagdish
DR9 -0.80 dB -13.20 dB 3:47 04-King of the World (Jagdish reprise)
DR8 -0.80 dB -10.17 dB 3:12 05-Gangster Rat
DR8 -0.80 dB -11.35 dB 5:37 06-Nature V Nurture
DR8 -0.80 dB -11.48 dB 4:57 07-Fluorescences
DR8 -0.80 dB -12.11 dB 5:55 08-Marmalade Skies
DR9 -0.80 dB -13.75 dB 4:51 09-Mirage
DR12 -0.80 dB -14.88 dB 3:19 10-Sixteen
DR8 -0.80 dB -11.95 dB 3:50 11-Dream Weaver
DR7 -0.80 dB -9.58 dB 3:44 12-Mingle Tingle
––––––––––––––––––––––––––––––––––––––––

Number of tracks: 12
Official DR value: DR9

Samplerate: 96000 Hz
Channels: 2
Bits per sample: 24
Bitrate: 2780 kbps
Codec: FLAC
================================================================================



Thanks to the Original customer.