Mongo Santamaria - All Strung Out (1970/2021) [Official Digital Download 24/192]

Posted By: pyatak
Mongo Santamaria - All Strung Out (1970/2021) [Official Digital Download 24/192]

Mongo Santamaria - All Strung Out (1970/2021) [Official Digital Download 24/192]
FLAC (tracks) 24-bit/192 kHz | Front Cover | Time - 30:35 minutes | 1,33 GB
Jazz | Label: Columbia - Legacy, Official Digital Download

Ramon "Mongo" Santamaria was an Afro-Cuban Latin jazz percussionist. He is most famous for being the composer of the jazz standard "Afro Blue", recorded by John Coltrane among others. In 1950 he moved to New York where he played with Perez Prado, Tito Puente, Cal Tjader, Fania All Stars, etc. He was an integral figure in the fusion of Afro-Cuban rhythms with R&B and soul, paving the way for the boogaloo era of the late 1960s. His 1963 hit rendition of Herbie Hancock's "Watermelon Man" was inducted into the Grammy Hall of Fame in 1998. His album Mambo Mongo was released on Chesky Records in 1993.

TRACKLIST

01. Mongo Santamaria - Since You've Been Gone
02. Mongo Santamaria - Day Tripper
03. Mongo Santamaria - Sing A Simple Song
04. Mongo Santamaria - Ain't Too Proud To Beg
05. Mongo Santamaria - Do Your Thing
06. Mongo Santamaria - I Thank You
07. Mongo Santamaria - But It's Alright
08. Mongo Santamaria - Sweet Pea
09. Mongo Santamaria - I Heard It Through The Grapevine
10. Mongo Santamaria - Me And You, Baby (Picao Y Tostao)
11. Mongo Santamaria - Somebody's Been Messin'

foobar2000 1.6.2 / Dynamic Range Meter 1.1.1
log date: 2021-01-13 20:56:31

––––––––––––––––––––––––––––––––––––––––
Analyzed: Mongo Santamaria / All Strung Out
––––––––––––––––––––––––––––––––––––––––

DR Peak RMS Duration Track
––––––––––––––––––––––––––––––––––––––––
DR11 -0.02 dB -13.77 dB 2:10 01-Since You've Been Gone
DR12 -0.26 dB -14.29 dB 2:49 02-Day Tripper
DR11 -0.02 dB -13.99 dB 3:31 03-Sing A Simple Song
DR12 -0.02 dB -13.99 dB 1:58 04-Ain't Too Proud To Beg
DR12 -0.02 dB -13.74 dB 2:48 05-Do Your Thing
DR11 -0.02 dB -13.16 dB 3:05 06-I Thank You
DR12 -0.02 dB -13.46 dB 2:59 07-But It's Alright
DR11 -0.02 dB -12.68 dB 2:32 08-Sweet Pea
DR11 -0.02 dB -12.88 dB 3:16 09-I Heard It Through The Grapevine
DR10 -0.02 dB -12.52 dB 2:49 10-Me And You, Baby (Picao Y Tostao)
DR11 -0.02 dB -12.49 dB 2:37 11-Somebody's Been Messin'
––––––––––––––––––––––––––––––––––––––––

Number of tracks: 11
Official DR value: DR11

Samplerate: 192000 Hz
Channels: 2
Bits per sample: 24
Bitrate: 6280 kbps
Codec: FLAC
================================================================================



Thanks to the Original customer.