Tags
Language
Tags

Mr & Mrs Cello - Great Film Music (2022) [Official Digital Download 24/96]

Posted By: pyatak
Mr & Mrs Cello - Great Film Music (2022) [Official Digital Download 24/96]

Mr & Mrs Cello - Great Film Music (2022) [Official Digital Download 24/96]
FLAC (tracks) 24-bit/96 kHz | Front Cover | Time - 31:00 minutes | 482 MB
Classical, Soundtrack | Studio Master, Official Digital Download

Hailing from Italy, Mr. Massimiliano Martinelli and Mrs. Fulvia Mancini (Mr & Mrs Cello) are professional cellists, bringing forth their love and veneration for the cello and classical performance into the modern music industry. Students and professionals alike can play their original arrangements presented in full score and as separate Cello 1 and Cello 2 pull-out parts. Pieces include: Cinema Paradiso; Godfather Medley; Love Story; Mia & Sebastian's Theme (from "La La Land"); Mission: Impossible Theme; Moon River (from "Breakfast at Tiffany's"); No Time to Die; and more.

TRACKLIST

1. Mr & Mrs Cello - Theme from "Love Story"
2. Mr & Mrs Cello - Amarcord
3. Mr & Mrs Cello - Nuovo Cinema Paradiso
4. Mr & Mrs Cello - Deborah's Theme (From "Once Upon a Time in America")
5. Mr & Mrs Cello - Eye of the Tiger (From "Rocky III")
6. Mr & Mrs Cello - Mission Impossible (Theme from "Mission: Impossible")
7. Mr & Mrs Cello - Mia and Sebastian's Theme (From "La La Land")
8. Mr & Mrs Cello - No Time to Die
9. Mr & Mrs Cello - Moon River (From "Breakfast at Tiffany's")
10. Mr & Mrs Cello - The Immigrant (Medley from "The Godfather", Finale, Love Theme)

foobar2000 1.6.2 / Dynamic Range Meter 1.1.1
log date: 2022-07-01 17:48:15

––––––––––––––––––––––––––––––––––––––––
Analyzed: Mr & Mrs Cello / Great Film Music
––––––––––––––––––––––––––––––––––––––––

DR Peak RMS Duration Track
––––––––––––––––––––––––––––––––––––––––
DR11 -3.22 dB -19.15 dB 3:01 01-Theme from "Love Story"
DR11 -5.53 dB -20.81 dB 2:11 02-Amarcord
DR11 -2.85 dB -19.51 dB 4:14 03-Nuovo Cinema Paradiso
DR12 -3.92 dB -23.65 dB 5:19 04-Deborah's Theme (From "Once Upon a Time in America")
DR11 -1.10 dB -17.54 dB 2:05 05-Eye of the Tiger (From "Rocky III")
DR12 -1.50 dB -18.31 dB 1:43 06-Mission Impossible (Theme from "Mission: Impossible")
DR12 -3.88 dB -19.69 dB 2:27 07-Mia and Sebastian's Theme (From "La La Land")
DR12 -5.96 dB -21.85 dB 3:58 08-No Time to Die
DR12 -4.85 dB -21.66 dB 2:04 09-Moon River (From "Breakfast at Tiffany's")
DR11 -3.01 dB -19.09 dB 3:56 10-The Immigrant (Medley from "The Godfather", Finale, Love Theme)
––––––––––––––––––––––––––––––––––––––––

Number of tracks: 10
Official DR value: DR11

Samplerate: 96000 Hz
Channels: 2
Bits per sample: 24
Bitrate: 2204 kbps
Codec: FLAC
================================================================================



Thanks to the Original customer.