Tags
Language
Tags

Simone Vebber - Organ Music in Trento in the Times of Count Matteo Thun (2022) [Official Digital Download 24/96]

Posted By: pyatak
Simone Vebber - Organ Music in Trento in the Times of Count Matteo Thun (2022) [Official Digital Download 24/96]

Simone Vebber - Organ Music in Trento in the Times of Count Matteo Thun (2022) [Official Digital Download 24/96]
FLAC (tracks) 24-bit/96 kHz | Front Cover | Time - 67:07 minutes | 1,22 GB
Classical | Studio Master, Official Digital Download

This entire collection, together with others (both public and private) existing in Trentino, provides a complex, varied and wide-ranging picture of the organ music that was being played in that period over the entire territory, with a lively circulation of material. The organist Simone Vebber makes use of a historic nineteenth-century organ in the performance of the compositions in the classic theatrical styles of the time.

TRACKLIST

1. Simone Vebber - Sinfonia for Organ
2. Simone Vebber - Sonata for Organ
3. Simone Vebber - Toccata for Organ
4. Simone Vebber - Capriccio for Organ
5. Simone Vebber - Messa doppia di seconda classe for Organ
6. Simone Vebber - Suonatina for Organ
7. Simone Vebber - 6 Verses in F Major for Organ
8. Simone Vebber - Polacca for Organ
9. Simone Vebber - Adagio for Organ
10. Simone Vebber - Ripieno per organo moderno
11. Simone Vebber - 6 Verses in C Major for the Gloria
12. Simone Vebber - Suonata per la consumazione
13. Simone Vebber - Andante per l'elevazione
14. Simone Vebber - Allegro moderato per l'offertorio
15. Simone Vebber - Marcia per dopo la messa

foobar2000 1.6.2 / Dynamic Range Meter 1.1.1
log date: 2022-07-01 17:44:35

––––––––––––––––––––––––––––––––––––––––
Analyzed: Simone Vebber / Organ Music in Trento in the Times of Count Matteo Thun
––––––––––––––––––––––––––––––––––––––––

DR Peak RMS Duration Track
––––––––––––––––––––––––––––––––––––––––
DR13 -1.02 dB -17.01 dB 5:52 01-Sinfonia for Organ
DR11 -6.01 dB -19.29 dB 7:01 02-Sonata for Organ
DR12 -1.31 dB -16.49 dB 3:31 03-Toccata for Organ
DR11 -2.79 dB -18.41 dB 4:01 04-Capriccio for Organ
DR11 -1.02 dB -15.25 dB 11:52 05-Messa doppia di seconda classe for Organ
DR9 -1.02 dB -13.50 dB 3:05 06-Suonatina for Organ
DR10 -1.02 dB -14.35 dB 7:46 07-6 Verses in F Major for Organ
DR11 -1.02 dB -14.58 dB 5:35 08-Polacca for Organ
DR10 -1.67 dB -16.88 dB 2:59 09-Adagio for Organ
DR7 -1.02 dB -11.37 dB 1:30 10-Ripieno per organo moderno
DR10 -1.02 dB -15.63 dB 4:36 11-6 Verses in C Major for the Gloria
DR9 -1.02 dB -13.62 dB 2:35 12-Suonata per la consumazione
DR9 -2.57 dB -14.78 dB 2:47 13-Andante per l'elevazione
DR10 -1.02 dB -14.20 dB 2:08 14-Allegro moderato per l'offertorio
DR11 -1.02 dB -14.61 dB 1:54 15-Marcia per dopo la messa
––––––––––––––––––––––––––––––––––––––––

Number of tracks: 15
Official DR value: DR10

Samplerate: 96000 Hz
Channels: 2
Bits per sample: 24
Bitrate: 2629 kbps
Codec: FLAC
================================================================================



Thanks to the Original customer.