Tags
Language
Tags

Sun Ra - Jazz In Silhouette (1959/2022) [Official Digital Download 24/96]

Posted By: pyatak
Sun Ra - Jazz In Silhouette (1959/2022) [Official Digital Download 24/96]

Sun Ra - Jazz In Silhouette (1959/2022) [Official Digital Download 24/96]
FLAC (tracks) 24-bit/96 kHz | Front Cover | Time - 44:30 minutes | 901 MB
Jazz | Studio Master, Official Digital Download

Jazz in Silhouette is a jazz album by pianist-composer Sun Ra and His Arkestra. It was recorded on March 6, 1959 and released in May of the same year. The album was recorded in Chicago during a session that also included the whole of the albums Sound Sun Pleasure!! and "Interstellar Low Ways" from the album of the same name.

TRACKLIST

1. Sun Ra - Enlightenment (Remastered)
2. Sun Ra - Saturn (Remastered)
3. Sun Ra - Velvet (Remastered)
4. Sun Ra - Ancient Aiethopia (Remastered)
5. Sun Ra - Hours After (Remastered)
6. Sun Ra - Horoscope (Remastered)
7. Sun Ra - Images (Remastered)
8. Sun Ra - Blues At Midnight (Remastered)

foobar2000 1.6.2 / Dynamic Range Meter 1.1.1
log date: 2022-07-01 20:37:00

––––––––––––––––––––––––––––––––––––––––
Analyzed: Sun Ra / Jazz In Silhouette
––––––––––––––––––––––––––––––––––––––––

DR Peak RMS Duration Track
––––––––––––––––––––––––––––––––––––––––
DR10 -0.16 dB -12.64 dB 5:04 01-Enlightenment (Remastered)
DR10 -0.53 dB -12.36 dB 3:39 02-Saturn (Remastered)
DR9 -0.05 dB -11.27 dB 3:21 03-Velvet (Remastered)
DR9 -0.54 dB -12.75 dB 9:06 04-Ancient Aiethopia (Remastered)
DR11 -0.49 dB -15.59 dB 3:44 05-Hours After (Remastered)
DR9 -0.40 dB -12.00 dB 3:46 06-Horoscope (Remastered)
DR10 -0.37 dB -13.45 dB 3:51 07-Images (Remastered)
DR9 -0.35 dB -11.13 dB 11:59 08-Blues At Midnight (Remastered)
––––––––––––––––––––––––––––––––––––––––

Number of tracks: 8
Official DR value: DR10

Samplerate: 96000 Hz
Channels: 2
Bits per sample: 24
Bitrate: 2896 kbps
Codec: FLAC
================================================================================



Thanks to the Original customer.