Tags
Language
Tags

Trio Chausson - Fanny & Felix Mendelssohn (2022) [Official Digital Download 24/192]

Posted By: pyatak
Trio Chausson - Fanny & Felix Mendelssohn (2022) [Official Digital Download 24/192]

Trio Chausson - Fanny & Felix Mendelssohn (2022) [Official Digital Download 24/192]
FLAC (tracks) 24-bit/192 kHz | Front Cover | Time - 54:06 minutes | 1,73 GB
Classical | Label: Mirare, Official Digital Download

To mark its 20th anniversary, the Trio Chausson presents two trios by the most famous siblings in the history of classical music: Fanny and Felix Mendelssohn. For many years, Fanny Mendelssohn (later: Hensel) was probably the younger brother's closest musical adviser. The siblings often shared their compositional ideas with each other before a note was even written. Therefore, at the beginning of the CD, the work of the great romantic composer, who was not allowed to be in the foreground due to the customs of the time and her status, is deliberately placed at the beginning of the CD.

TRACKLIST

1. Trio Chausson - I. Allegro molto vivace
2. Trio Chausson - II. Andante espressivo
3. Trio Chausson - III. Lied. Allegretto
4. Trio Chausson - IV. Allegretto moderato
5. Trio Chausson - I. Molto allegro ed agitato
6. Trio Chausson - II. Andante con moto tranquillo
7. Trio Chausson - III. Scherzo. Leggiero e vivace
8. Trio Chausson - IV. Finale. Allegro assai appassionato

foobar2000 1.6.2 / Dynamic Range Meter 1.1.1
log date: 2022-01-28 02:31:33

––––––––––––––––––––––––––––––––––––––––
Analyzed: Trio Chausson / Fanny & Felix Mendelssohn
––––––––––––––––––––––––––––––––––––––––

DR Peak RMS Duration Track
––––––––––––––––––––––––––––––––––––––––
DR11 -0.50 dB -15.67 dB 11:23 01-I. Allegro molto vivace
DR15 -0.50 dB -21.24 dB 6:02 02-II. Andante espressivo
DR11 -5.62 dB -21.91 dB 2:35 03-III. Lied. Allegretto
DR11 -0.50 dB -14.94 dB 5:51 04-IV. Allegretto moderato
DR11 -0.50 dB -15.19 dB 9:39 05-I. Molto allegro ed agitato
DR14 -0.57 dB -20.44 dB 6:21 06-II. Andante con moto tranquillo
DR11 -0.50 dB -16.39 dB 3:49 07-III. Scherzo. Leggiero e vivace
DR10 -0.50 dB -15.45 dB 8:33 08-IV. Finale. Allegro assai appassionato
––––––––––––––––––––––––––––––––––––––––

Number of tracks: 8
Official DR value: DR12

Samplerate: 192000 Hz
Channels: 2
Bits per sample: 24
Bitrate: 4550 kbps
Codec: FLAC
================================================================================



Thanks to the Original customer.