Tags
Language
Tags

London Mozart Players - Hummel: Piano Concerto in A, O du lieber Augustin, L'Enchantment d'Oberon (2006/2022) [24/96]

Posted By: delpotro
London Mozart Players - Hummel: Piano Concerto in A, O du lieber Augustin, L'Enchantment d'Oberon (2006/2022) [24/96]

Howard Shelley & London Mozart Players - Hummel: Piano Concerto in A, O du lieber Augustin, L'Enchantment d'Oberon & Le Retour à Londres (2006/2022)
FLAC (tracks) 24-bit/96 kHz | Front Cover & Digital Booklet | Time - 69:50 minutes | 1,14 GB
Classical | Label: Chandos Records, Official Digital Download

Howard Shelley continues his survey of Hummel's works for piano and orchestra and this disc features the premiere recording of Le Retour à Londres.

Howard Shelley has a large and acclaimed discography on Chandos and is acknowledged as a leading exponent of keyboard repertoire from the eighteenth and nineteenth centuries.

"All these pieces, plus the purely orchestral variations on the tune of ‘O du lieber Augustin’ (which curiously throws in a ‘Turkish’ percussion ensemble), are vividly performed by the London Mozart Players, while pianist Howard Shelley throws off Hummel’s copious cascades of notes with appropriate panache." (BBC Music Magazine)

"Howard Shelley has been systematically recording Hummel’s works for piano and orchestra for Chandos. Each one has been highly rated in these pages and this one is no different. The recording is superb, the notes are good, and the playing is outstanding." (American Record Guide)

"Shelley…is outstanding in this music, synthesizing the classical and romantic elements perfectly. A natural Mozartian, he allies his poise and clarity to a fearless technique, and absorbs Hummel’s most ostentatious demands into the musical fabric, giving the decorative solo part the necessary grace and piquancy." (Gramophone)

Tracklist:
01. L'Enchantment d'Oberon, Op. 116
02. I. Introduction. Largo
03. III. Allegretto vivace
04. I. Allegro moderato
05. II. Romanza. Adagio
06. III. Rondo
07. O du lieber Augustin, S. 47, WoO 2

foobar2000 1.4.1 / Dynamic Range Meter 1.1.1
log date: 2022-05-14 13:13:48

––––––––––––––––––––––––––––––––––––––––
Analyzed: London Mozart Players / Hummel: Piano Concerto in A, O du lieber Augustin, L'Enchantment d'Oberon & Le Retour à Londres
––––––––––––––––––––––––––––––––––––––––

DR Peak RMS Duration Track
––––––––––––––––––––––––––––––––––––––––
DR15 -0.81 dB -22.88 dB 17:47 01-L'Enchantment d'Oberon, Op. 116
DR12 -7.42 dB -25.83 dB 3:31 02-I. Introduction. Largo
DR14 -6.72 dB -25.38 dB 11:01 03-III. Allegretto vivace
DR14 -4.86 dB -24.58 dB 13:54 04-I. Allegro moderato
DR13 -8.97 dB -27.54 dB 6:02 05-II. Romanza. Adagio
DR14 -4.40 dB -24.54 dB 8:38 06-III. Rondo
DR15 -1.98 dB -24.02 dB 8:57 07-O du lieber Augustin, S. 47, WoO 2
––––––––––––––––––––––––––––––––––––––––

Number of tracks: 7
Official DR value: DR14

Samplerate: 96000 Hz
Channels: 2
Bits per sample: 24
Bitrate: 2468 kbps
Codec: FLAC
================================================================================


Thanks to the Original customer!