Tags
Language
Tags

North Mississippi Allstars - Set Sail (2022) [Official Digital Download 24/96]

Posted By: delpotro
North Mississippi Allstars - Set Sail (2022) [Official Digital Download 24/96]

North Mississippi Allstars - Set Sail (2022)
FLAC (tracks) 24-bit/96 kHz | Front Cover | Time - 44:22 minutes | 862 MB
Blues Rock | Label: New West Records, Official Digital Download

Luther and Cody Dickinson started the North Mississippi Allstars in 1996 as a loose collective of like-minded second-generation musicians who shared a local repertoire and regional style. Over the years the lineup shifted by design, and each NMA record offered up a different combination of collaborators. Set Sail finds the brothers working with Jesse Williams on bass and Lamar Williams, Jr. for the first time. Set Sail, the North Mississippi Allstars' thirteenth album, follows 2019"s Up and Rolling, which was nominated for a Grammy Award for the Best Contemporary Blues Album in 2021. Set Sail continues the band's tradition of creating roots music that displays remarkable variety. With their latest record, NMA are able to build upon their self-described sound of Primitive Modernism. A melding of the new and the old, traditional and futuristic, crafted lyrics and improvisational music.

Tracklist:
1. Set Sail Part I (Featuring Lamar Williams Jr.) (04:57)
2. Bumpin’ (02:52)
3. See the Moon (Featuring Lamar Williams Jr. And Sharisse Norman) (03:21)
4. Outside (Featuring Lamar Williams Jr.) (04:58)
5. Didn’t We Have a Time (06:04)
6. Never Want to Be Kissed (Featuring William Bell) (03:42)
7. Set Sail Part II (Featuring Lamar Williams Jr.) (04:33)
8. Juicy Juice (03:32)
9. Rabbit Foot (Featuring Lamar Williams Jr.) (04:04)
10. Authentic (Featuring Lamar Williams Jr.) (06:15)

foobar2000 1.4.1 / Dynamic Range Meter 1.1.1
log date: 2022-01-27 17:19:49

––––––––––––––––––––––––––––––––––––––––
Analyzed: North Mississippi Allstars / Set Sail
––––––––––––––––––––––––––––––––––––––––

DR Peak RMS Duration Track
––––––––––––––––––––––––––––––––––––––––
DR10 -0.50 dB -11.52 dB 4:58 01-Set Sail, Part I
DR9 -0.50 dB -10.94 dB 2:53 02-Bumpin'
DR8 -0.50 dB -9.91 dB 3:22 03-See the Moon
DR8 -0.50 dB -9.61 dB 4:58 04-Outside
DR10 -0.50 dB -11.94 dB 6:05 05-Didn't We Have a Time
DR11 -0.50 dB -12.43 dB 3:42 06-Never Want to Be Kissed (feat. William Bell)
DR10 -0.50 dB -12.61 dB 4:33 07-Set Sail, Part II
DR9 -0.50 dB -11.36 dB 3:32 08-Juicy Juice
DR8 -0.50 dB -10.51 dB 4:05 09-Rabbit Foot
DR8 -0.50 dB -9.84 dB 6:15 10-Authentic
––––––––––––––––––––––––––––––––––––––––

Number of tracks: 10
Official DR value: DR9

Samplerate: 96000 Hz
Channels: 2
Bits per sample: 24
Bitrate: 2741 kbps
Codec: FLAC
================================================================================


Thanks to the Original customer!