Pete Townshend - Another Scoop (1987/2017) [Official Digital Download 24-bit/96kHz]

Posted By: HDV
Pete Townshend - Another Scoop (1987/2017) [Official Digital Download 24-bit/96kHz]

Pete Townshend - Another Scoop (1987/2017)
FLAC (tracks) 24-bit/96 kHz | Time - 87:45 minutes | 1,99 GB
Studio Master, Official Digital Download | Artwork: Front cover

Like "Scoop" released in 1983, "Another Scoop", followed four years later and continued to provide valued access to the Pete Townshend’s vaults, features a multitude of demos, outtakes and unreleased material, many of which are songs by The Who. Among the tracks included on this volume are ‘Pinball Wizard’, ‘Substitute’, ‘You Better You Bet’ and ‘Pictures of Lily’. „Another Scoop“ is still highly recommended for the serious Who/Townshend fan.

Like its predecessor, Another Scoop is a collection of 27 demos Pete Townshend recorded for the Who, and if anything, it surpasses the first volume in terms of quality. Another Scoop has a greater percentage of familiar Who classics – including "You Better You Bet," "Pinball Wizard," "Happy Jack," "Substitute," "Long Live Rock," "Pictures of Lily," and "The Kids Are Alright" – and the outtakes are uniformly excellent, ranging from his takes on "Driftin' Blues" and "Begin the Beguine" to neglected gems like "Girl in a Suitcase," "Holly Like Ivy," and "Ask Yourself," and even weird experiments like "Football Fugue." For any Townshend fan, Another Scoop is necessary listening, containing some of his best and most adventurous work.

Tracklist:

01 - You Better You Bet
02 - Girl In A Suitcase
03 - Brooklyn Kids
04 - Pinball Wizard
05 - Football Fugue
06 - Happy Jack
07 - Substitute
08 - Long Live Rock
09 - Call Me Lightning
10 - Holly Like Ivy
11 - Begin The Beguine
12 - Vicious Interlude
13 - La La La Lies
14 - Cat Snatch
15 - Prelude #556
16 - Baroque Ippanese
17 - Praying The Game
18 - Driftin' Blues
19 - Christmas
20 - Pictures Of Lily
21 - Don't Let Go Of The Coat
22 - The Kids Are Alright
23 - Prelude, The Right To Write
24 - Never Ask Me
25 - Ask Yourself
26 - The Ferryman
27 - The Shout

Produced by Pete Townshend.
Digitally Remastered.

Analyzed: Pete Townshend / Another Scoop
––––––––––––––––––––––––––––––––––––––––

DR Peak RMS Duration Track
––––––––––––––––––––––––––––––––––––––––
DR7 0.00 dB -8.74 dB 5:20 01-You Better You Bet
DR8 0.00 dB -10.49 dB 3:25 02-Girl In A Suitcase
DR7 0.00 dB -9.91 dB 4:52 03-Brooklyn Kids
DR8 0.00 dB -9.53 dB 2:57 04-Pinball Wizard
DR9 0.00 dB -10.46 dB 3:25 05-Football Fugue
DR9 0.00 dB -12.56 dB 2:16 06-Happy Jack
DR8 0.00 dB -10.19 dB 3:35 07-Substitute
DR7 0.00 dB -8.34 dB 3:46 08-Long Live Rock
DR10 0.00 dB -11.53 dB 2:15 09-Call Me Lightning
DR9 0.00 dB -10.46 dB 2:52 10-Holly Like Ivy
DR11 0.00 dB -14.55 dB 4:11 11-Begin The Beguine
DR12 -0.09 dB -16.69 dB 0:24 12-Vicious Interlude
DR9 0.00 dB -11.62 dB 1:57 13-La La La Lies
DR9 0.00 dB -10.76 dB 3:22 14-Cat Snatch
DR7 0.00 dB -10.23 dB 1:19 01-Prelude #556
DR9 0.00 dB -11.62 dB 2:26 02-Baroque Ippanese
DR7 0.00 dB -10.12 dB 4:17 03-Praying The Game
DR11 0.00 dB -12.61 dB 3:15 04-Driftin' Blues
DR9 0.00 dB -10.55 dB 1:56 05-Christmas
DR8 0.00 dB -10.38 dB 2:49 06-Pictures Of Lily
DR7 0.00 dB -8.96 dB 4:05 07-Don't Let Go Of The Coat
DR9 0.00 dB -11.56 dB 2:58 08-The Kids Are Alright
DR8 0.00 dB -11.48 dB 1:35 09-Prelude, The Right To Write
DR7 0.00 dB -9.57 dB 4:24 10-Never Ask Me
DR7 0.00 dB -9.56 dB 4:33 11-Ask Yourself
DR8 0.00 dB -11.54 dB 5:44 12-The Ferryman
DR8 0.00 dB -10.62 dB 3:48 13-The Shout
––––––––––––––––––––––––––––––––––––––––

Number of tracks: 27
Official DR value: DR8

Samplerate: 96000 Hz
Channels: 2
Bits per sample: 24
Bitrate: 2988 kbps
Codec: FLAC
================================================================================


Thanks to the Original customer!