Tommy Kotter Trio - Tender Land (2017) [Official Digital Download 24-bit/96 kHz]

Posted By: HDV
Tommy Kotter Trio - Tender Land (2017) [Official Digital Download 24-bit/96 kHz]

Tommy Kotter Trio - Tender Land (2017)
FLAC (tracks) 24-bit/96 kHz | Time - 118:51 minutes | 2,58 GB
Studio Master, Official Digital Download | Artwork: Digital booklet

Double album with old songs on CD 1 and new songs on CD 2. All music composed and arranged by Tommy Kotter except Bolero composed by Maurice Ravel. With guests, Vocalist Gine Gaustad Anderssen from Norway and percussionist Stefan Engberg. On the title song Tender Land, young musicians from the Arts Programme at Hvitfeldtska Upper Secondary School in Göteborg are Playing and Singing with Joy and enthusiasm, 10 instrumentalists and about 20 singers.

Early one morning, I sat down by my piano and played Interlude, then recently composed. When I heard the fnal chord ringing I heard another melody with chords that I played over and over again. It then struck me that it would be fne with different instruments one after the other playing the tune and also joined by a choir singing without words. I also teach music at the Arts Programme at Hvitfeldtska Upper Secondary School in Göteborg. So I presented the idea to the young musicians and asked them if they were willing to take part in the recording of a CD. The idea was met with great enthusiasm and so we went to Nilento Studio. The recording was done in a happy atmosphere and the young musicians played and sang incredibly well. It was a wonderful experience and I do hope to be able to do more recordings with them. – Tommy Kotter

Tracklist:

01 - Kivik Marketplace
02 - Flowering Children-Bolero
03 - Folksong No 1
04 - Folksong No 2
05 - Temple Dance
06 - Flame
07 - Seascape
08 - Cavelight
09 - Kivik Shadows
10 - Hold My Arms Around You
11 - The Bells Are Ringing
12 - Ljuset från krubban (The Light From the Manger)
13 - Domherren (The Bullfinch)
14 - Summer Rain
15 - Holy Cow
16 - Winterpoem
17 - On the Tram
18 - Interlude
19 - Tender Land

Produced & Arranged by Tommy Kotter.
Sounddesign, Mixed and Mastered by Lars Nilsson.
Recorded by Michael Dahlvid at Nilento Studio, Göteborg, Sweden, in March and May 2016.

Musicians:
Tommy Kotter - piano
Yasuhito Mori - bass
David Sundby - drums
Stefan Engberg - percussion
Gine Gaustad Anderssen - vocals
+
The choir and instrumentalists from the Arts Programme at Hvitfeldtska Upper Secondary School.

Analyzed: Tommy Kotter Trio / Tender Land
––––––––––––––––––––––––––––––––––––––––

DR Peak RMS Duration Track
––––––––––––––––––––––––––––––––––––––––
DR9 -0.62 dB -12.01 dB 10:19 01-Kivik Marketplace
DR9 -0.62 dB -12.14 dB 8:39 02-Flowering Children-Bolero
DR13 -0.62 dB -17.49 dB 5:32 03-Folksong No 1
DR9 -2.14 dB -14.33 dB 1:17 04-Folksong No 2
DR8 -0.62 dB -11.62 dB 7:42 05-Temple Dance
DR9 -0.62 dB -11.04 dB 4:57 06-Flame
DR10 -0.62 dB -12.75 dB 5:28 07-Seascape
DR8 -0.62 dB -10.25 dB 4:49 08-Cavelight
DR8 -0.62 dB -10.76 dB 11:56 09-Kivik Shadows
DR9 -0.62 dB -11.80 dB 6:34 10-Hold My Arms Around You
DR9 -0.62 dB -12.12 dB 5:38 11-The Bells Are Ringing
DR12 -0.62 dB -15.81 dB 5:57 12-Ljuset från krubban (The Light From the Manger)
DR11 -0.62 dB -15.91 dB 2:42 13-Domherren (The Bullfinch)
DR11 -1.39 dB -15.32 dB 2:58 14-Summer Rain
DR9 -0.62 dB -12.60 dB 4:47 15-Holy Cow
DR13 -0.62 dB -17.71 dB 4:42 16-Winterpoem
DR8 -0.62 dB -11.93 dB 13:11 17-On the Tram
DR13 -1.08 dB -17.84 dB 1:59 18-Interlude
DR8 -0.62 dB -10.73 dB 9:45 19-Tender Land
––––––––––––––––––––––––––––––––––––––––

Number of tracks: 19
Official DR value: DR10

Samplerate: 96000 Hz
Channels: 2
Bits per sample: 24
Bitrate: 3031 kbps
Codec: FLAC
================================================================================


Thanks to the Original customer!