Tags
Language
Tags

Michele Guaglio - Lots Of Time (2019)

Posted By: popsakov
Michele Guaglio - Lots Of Time (2019)

Michele Guaglio - Lots Of Time (2019)
EAC Rip | FLAC (Tracks) + Cue + m3u + Log ~ 345 Mb | MP3 CBR320 ~ 204 Mb
Full Scans | 00:52:03 | RAR 5% Recovery
Contemporary Jazz, Post-Bop | Abeat Records #ABJZ 566

"Lots of time" marks the debut with Michel Guaglio's Abeat, and is the result of a long work on the study of composition and improvisation, "Lots of time", is an emblematic title because the work is born precisely after "a long time", because the research was long before being ready to make it, be-cause it tells so much time. To do this Guaglio has chosen partners that represent the excellence of the jazz national scene; musicians capable, endowed with great human and musical sensibility, with a lot of experience. The result is a work that in addition to a remarkable compositional sign sees high expressive finesse and interplay, as well as a valuable stylistic modernity.

***************

Track List:

01. 2016 [6:33]
02. Family [5:56]
03. Lots of Time [5:52]
04. Milonga's Dream [5:58]
05. Pictures [6:20]
06. A New Day [6:39]
07. Flowers Ahead [2:24]
08. Pressure [3:58]
09. Influences (Ram) [4:29]
10. End [3:59]

Exact Audio Copy V1.5 from 20. February 2020

EAC extraction logfile from 14. July 2021, 8:36

Michele Guaglio / Lots Of Time

Used drive : HL-DT-STDVD-ROM GDR8161B Adapter: 1 ID: 0

Read mode : Secure
Utilize accurate stream : Yes
Defeat audio cache : Yes
Make use of C2 pointers : No

Read offset correction : 102
Overread into Lead-In and Lead-Out : No
Fill up missing offset samples with silence : Yes
Delete leading and trailing silent blocks : No
Null samples used in CRC calculations : Yes
Used interface : Native Win32 interface for Win NT & 2000
Gap handling : Appended to previous track

Used output format : User Defined Encoder
Selected bitrate : 768 kBit/s
Quality : High
Add ID3 tag : No
Command line compressor : C:\Program Files (x86)\Exact Audio Copy\Flac\flac.exe
Additional command line options : -8 -V -T "ARTIST=%artist%" -T "TITLE=%title%" -T "ALBUM=%albumtitle%" -T "DATE=%year%" -T "TRACKNUMBER=%tracknr%" -T "TOTALTRACKS=%numtracks%" -T "GENRE=%genre%" -T "ALBUMARTIST=%albumartist%" -T "ALBUM ARTIST=%albumartist%" -T "COMMENT=EAC Secure Mode, Test & Copy, AccurateRip, FLAC -8" %source%


TOC of the extracted CD

Track | Start | Length | Start sector | End sector
––––––––––––––––––––––––––––-
1 | 0:00.00 | 6:33.63 | 0 | 29537
2 | 6:33.63 | 5:57.10 | 29538 | 56322
3 | 12:30.73 | 5:53.06 | 56323 | 82803
4 | 18:24.04 | 5:59.31 | 82804 | 109759
5 | 24:23.35 | 6:21.06 | 109760 | 138340
6 | 30:44.41 | 6:40.02 | 138341 | 168342
7 | 37:24.43 | 2:25.24 | 168343 | 179241
8 | 39:49.67 | 3:59.12 | 179242 | 197178
9 | 43:49.04 | 4:29.50 | 197179 | 217403
10 | 48:18.54 | 3:58.10 | 217404 | 235263


Track 1

Filename D:\TORRENT\Michele Guaglio - Lots Of Time\01 - 2016.wav

Pre-gap length 0:00:02.00

Peak level 96.4 %
Extraction speed 5.3 X
Track quality 100.0 %
Test CRC 41638775
Copy CRC 41638775
Track not present in AccurateRip database
Copy OK

Track 2

Filename D:\TORRENT\Michele Guaglio - Lots Of Time\02 - Family.wav

Pre-gap length 0:00:01.47

Peak level 93.7 %
Extraction speed 6.1 X
Track quality 100.0 %
Test CRC EBC7E909
Copy CRC EBC7E909
Track not present in AccurateRip database
Copy OK

Track 3

Filename D:\TORRENT\Michele Guaglio - Lots Of Time\03 - Lots Of Time.wav

Pre-gap length 0:00:01.47

Peak level 96.3 %
Extraction speed 6.8 X
Track quality 100.0 %
Test CRC CB7C4054
Copy CRC CB7C4054
Track not present in AccurateRip database
Copy OK

Track 4

Filename D:\TORRENT\Michele Guaglio - Lots Of Time\04 - Milonga's Dream.wav

Pre-gap length 0:00:01.47

Peak level 96.4 %
Extraction speed 7.4 X
Track quality 100.0 %
Test CRC 09D8DD49
Copy CRC 09D8DD49
Track not present in AccurateRip database
Copy OK

Track 5

Filename D:\TORRENT\Michele Guaglio - Lots Of Time\05 - Pictures.wav

Pre-gap length 0:00:01.47

Peak level 74.5 %
Extraction speed 8.0 X
Track quality 100.0 %
Test CRC C1250D3A
Copy CRC C1250D3A
Track not present in AccurateRip database
Copy OK

Track 6

Filename D:\TORRENT\Michele Guaglio - Lots Of Time\06 - A New Day.wav

Pre-gap length 0:00:01.47

Peak level 96.4 %
Extraction speed 7.7 X
Track quality 99.9 %
Test CRC 4B17C065
Copy CRC 4B17C065
Track not present in AccurateRip database
Copy OK

Track 7

Filename D:\TORRENT\Michele Guaglio - Lots Of Time\07 - Flowers Ahead.wav

Pre-gap length 0:00:01.47

Peak level 35.3 %
Extraction speed 7.7 X
Track quality 100.0 %
Test CRC EFAACA99
Copy CRC EFAACA99
Track not present in AccurateRip database
Copy OK

Track 8

Filename D:\TORRENT\Michele Guaglio - Lots Of Time\08 - Pressure.wav

Pre-gap length 0:00:01.47

Peak level 78.5 %
Extraction speed 8.6 X
Track quality 100.0 %
Test CRC 0E3E51A6
Copy CRC 0E3E51A6
Track not present in AccurateRip database
Copy OK

Track 9

Filename D:\TORRENT\Michele Guaglio - Lots Of Time\09 - Influences (Ram).wav

Pre-gap length 0:00:01.47

Peak level 71.2 %
Extraction speed 8.9 X
Track quality 100.0 %
Test CRC 45D47CB0
Copy CRC 45D47CB0
Track not present in AccurateRip database
Copy OK

Track 10

Filename D:\TORRENT\Michele Guaglio - Lots Of Time\10 - End.wav

Pre-gap length 0:00:01.47

Peak level 76.0 %
Extraction speed 9.0 X
Track quality 100.0 %
Test CRC CC561349
Copy CRC CC561349
Track not present in AccurateRip database
Copy OK


None of the tracks are present in the AccurateRip database

No errors occurred

End of status report

–– CUETools DB Plugin V2.1.6

[CTDB TOCID: aX5vY1z_V4OAmb5Sa6dnG8yB95E-] disk not present in database
Submit result: aX5vY1z_V4OAmb5Sa6dnG8yB95E- has been uploaded


==== Log checksum 8453EDFE6F88F260C594B0A861382B0C81C6CCE418CCD74ABCB8548BA0DE69C5 ====

Michele Guaglio - Lots Of Time (2019)


All thanks go to the original ripper(s) …

>>> My Blog <<<

DOWNLOAD: