Subcategories

Craig Brann - The Twelve (2019)

Posted By: Domestos
Craig Brann - The Twelve (2019)

Craig Brann - The Twelve (2019)
EAC Rip | FLAC (tracks+.cue, log) ~ 411.02 Mb | 01:07:47 | Scans included
Hard Bop, Post-Bop | Label: SteepleChase - SCCD 31879

The four members of this quintet studied jazz together at the renowned William Patterson University in New Jersey. The exceptional affinity among them is evident on this Craig’s fifth album for SteepleChase. The album’s intriguing leitmotif of chromatic scale of 12 notes and/or the 12-bar blues conceived by the leader Craig Brann is flawlessly executed by the like-minded fivesome here.

”Good bros playing great tunes, Lineage is a luminous clinic on the importance of what a solid friendship among musicians can do for the strength of any project.” - Ron Hart, DownBeat **** “Lineage” (SCCD 31847)



Track List:
01. Ode to Charles Lutwidge Dodgson (Brann) - 8:24
02. No Freeloader (Brann) - 7:41
03. Sheol Song (Brann) - 4:31
04. Hornpout (Brann) - 8:53
05. The Twelve (Brann) - 12:13
06. Penumbral (Brann) - 8:44
07. Brooklyn (Brann) - 9:48
08. Why Me, Lord (Kristoffersen) - 7:33

Craig Brann - guitar
Freddie Hendrix - trumpet
Ethan Herr - piano
Nick Morrison - bass
Rudy Royston - drums

Recorded in October 2018.

Craig Brann - The Twelve (2019)

Exact Audio Copy V1.3 from 2. September 2016

EAC extraction logfile from 5. November 2020, 16:01

Craig Brann / The Twelve

Used drive : PLEXTOR PX-891SAF Adapter: 1 ID: 0

Read mode : Secure
Utilize accurate stream : Yes
Defeat audio cache : Yes
Make use of C2 pointers : No

Read offset correction : 6
Overread into Lead-In and Lead-Out : No
Fill up missing offset samples with silence : Yes
Delete leading and trailing silent blocks : No
Null samples used in CRC calculations : Yes
Used interface : Native Win32 interface for Win NT & 2000
Gap handling : Appended to previous track

Used output format : User Defined Encoder
Selected bitrate : 1024 kBit/s
Quality : High
Add ID3 tag : No
Command line compressor : C:\Program Files (x86)\Exact Audio Copy\Flac\flac.exe
Additional command line options : -8 -V -T "ARTIST=%artist%" -T "TITLE=%title%" -T "ALBUM=%albumtitle%" -T "DATE=%year%" -T "TRACKNUMBER=%tracknr%" -T "GENRE=%genre%" -T "PERFORMER=%albuminterpret%" -T "COMPOSER=%composer%" %haslyrics%–tag-from-file=LYRICS="%lyricsfile%"%haslyrics% -T "ALBUMARTIST=%albumartist%" -T "DISCNUMBER=%cdnumber%" -T "TOTALDISCS=%totalcds%" -T "TOTALTRACKS=%numtracks%" -T "COMMENT=%comment%" %source% -o %dest%


TOC of the extracted CD

Track | Start | Length | Start sector | End sector
––––––––––––––––––––––––––––-
1 | 0:00.00 | 8:23.71 | 0 | 37795
2 | 8:23.71 | 7:40.70 | 37796 | 72365
3 | 16:04.66 | 4:31.25 | 72366 | 92715
4 | 20:36.16 | 8:52.62 | 92716 | 132677
5 | 29:29.03 | 12:13.12 | 132678 | 187664
6 | 41:42.15 | 8:44.04 | 187665 | 226968
7 | 50:26.19 | 9:47.71 | 226969 | 271064
8 | 60:14.15 | 7:33.15 | 271065 | 305054


Track 1

Filename D:\#EAC new\#wav+flac\#New\Craig Brann - The Twelve\01. Craig Brann - Ode to Charles Lutwidge Dodgson.wav

Pre-gap length 0:00:02.00

Peak level 84.7 %
Extraction speed 5.5 X
Track quality 99.9 %
Test CRC 14B1D3EC
Copy CRC 14B1D3EC
Track not present in AccurateRip database
Copy OK

Track 2

Filename D:\#EAC new\#wav+flac\#New\Craig Brann - The Twelve\02. Craig Brann - No Freeloader.wav

Pre-gap length 0:00:02.76

Peak level 87.5 %
Extraction speed 7.0 X
Track quality 100.0 %
Test CRC 29526C20
Copy CRC 29526C20
Track not present in AccurateRip database
Copy OK

Track 3

Filename D:\#EAC new\#wav+flac\#New\Craig Brann - The Twelve\03. Craig Brann - Sheol Song.wav

Pre-gap length 0:00:02.76

Peak level 81.2 %
Extraction speed 7.3 X
Track quality 100.0 %
Test CRC 934A9025
Copy CRC 934A9025
Track not present in AccurateRip database
Copy OK

Track 4

Filename D:\#EAC new\#wav+flac\#New\Craig Brann - The Twelve\04. Craig Brann - Hornpout.wav

Pre-gap length 0:00:02.76

Peak level 98.3 %
Extraction speed 7.8 X
Track quality 99.9 %
Test CRC E66A909B
Copy CRC E66A909B
Track not present in AccurateRip database
Copy OK

Track 5

Filename D:\#EAC new\#wav+flac\#New\Craig Brann - The Twelve\05. Craig Brann - The Twelve.wav

Pre-gap length 0:00:02.68

Peak level 86.2 %
Extraction speed 9.5 X
Track quality 100.0 %
Test CRC EA948102
Copy CRC EA948102
Track not present in AccurateRip database
Copy OK

Track 6

Filename D:\#EAC new\#wav+flac\#New\Craig Brann - The Twelve\06. Craig Brann - Penumbral.wav

Pre-gap length 0:00:02.76

Peak level 94.6 %
Extraction speed 10.1 X
Track quality 100.0 %
Test CRC 9872B350
Copy CRC 9872B350
Track not present in AccurateRip database
Copy OK

Track 7

Filename D:\#EAC new\#wav+flac\#New\Craig Brann - The Twelve\07. Craig Brann - Brooklyn.wav

Pre-gap length 0:00:02.76

Peak level 86.4 %
Extraction speed 10.0 X
Track quality 99.9 %
Test CRC D62E68A7
Copy CRC D62E68A7
Track not present in AccurateRip database
Copy OK

Track 8

Filename D:\#EAC new\#wav+flac\#New\Craig Brann - The Twelve\08. Craig Brann - Why Me, Lord.wav

Pre-gap length 0:00:02.76

Peak level 81.8 %
Extraction speed 9.8 X
Track quality 99.9 %
Test CRC FCF95E20
Copy CRC FCF95E20
Track not present in AccurateRip database
Copy OK


None of the tracks are present in the AccurateRip database

No errors occurred

End of status report

–– CUETools DB Plugin V2.1.6

[CTDB TOCID: KQ7sjEzDE_L3QEIocGrbb7Hopxc-] disk not present in database
Submit result: KQ7sjEzDE_L3QEIocGrbb7Hopxc- has been uploaded


==== Log checksum 78F2FB0FF60B85AE1F9FE58C96149772F06E74290C185DD8A60764E1F496D9FB ====

All thanks go to the redacted

More Music in My Blog
Follow My RSS Channel