Subcategories

Toots Thielemans & The Thierry Lang Trio - Swiss Radio Days Jazz Series Vol. 44: Cully 1989 & 1990 (2019)

Posted By: delpotro
Toots Thielemans & The Thierry Lang Trio - Swiss Radio Days Jazz Series Vol. 44: Cully 1989 & 1990 (2019)

Toots Thielemans & The Thierry Lang Trio - Swiss Radio Days Jazz Series Vol. 44 / Toots Thielemans presents The Thierry Lang Trio Cully 1989 & 1990 (2019)
EAC Rip | FLAC (tracks+log+.cue) - 392 Mb | MP3 CBR 320 kbps - 156 Mb | 01:08:07
Jazz, Post-Bop | Label: TCB Records

Swiss pianist Thierry Lang has always admired Toots Thielemans with great affection and sincerity. Thus it was only a matter of time for the two to work together. This happened when, in 1989, Toots Thielemans and the Thierry Lang Trio got together for a great concert at Cully Jazz Festival. The result was so special that the promoter of Cully Jazz Festival decided to repeat the experience the following year, something quite rare in the programming of any festival. This never-released-before-material was recorded by Radio Suisse Romande (now the RTS, Radio Télévision Suisse) and contains tracks from both events.
Tracklist:
01. The Days of Wine and Roses (Mancini-Mercer) - 8:44
02. A Weaver of Dreams (Young-Elliott) - 8:16
03. I Do It for Your Love (Simon) - 9:13
04. Stella by Starlight (Young-Washington) - 10:27
05. My One and Only Love (Wood-Mellin) - 9:42
06. Estate (Martino-Brighetti) - 11:16
07. Sno' Peas (Markowitz) - 10:30

Exact Audio Copy V1.3 from 2. September 2016

EAC extraction logfile from 28. September 2019, 15:10

Toots Thielemans - Thierry Lang Trio / Toots Thielemans presentsThierry Lang Trio

Used drive : ASUS BC-12D2HT Adapter: 1 ID: 0

Read mode : Secure
Utilize accurate stream : Yes
Defeat audio cache : Yes
Make use of C2 pointers : No

Read offset correction : 6
Overread into Lead-In and Lead-Out : No
Fill up missing offset samples with silence : Yes
Delete leading and trailing silent blocks : No
Null samples used in CRC calculations : Yes
Used interface : Native Win32 interface for Win NT & 2000
Gap handling : Appended to previous track

Used output format : User Defined Encoder
Selected bitrate : 1024 kBit/s
Quality : High
Add ID3 tag : No
Command line compressor : C:\Program Files (x86)\Exact Audio Copy\Flac\flac.exe
Additional command line options : -8 -V -T "ARTIST=%artist%" -T "TITLE=%title%" -T "ALBUM=%albumtitle%" -T "DATE=%year%" -T "TRACKNUMBER=%tracknr%" -T "GENRE=%genre%" -T "PERFORMER=%albuminterpret%" -T "COMPOSER=%composer%" %haslyrics%–tag-from-file=LYRICS="%lyricsfile%"%haslyrics% -T "ALBUMARTIST=%albumartist%" -T "DISCNUMBER=%cdnumber%" -T "TOTALDISCS=%totalcds%" -T "TOTALTRACKS=%numtracks%" -T "COMMENT=%comment%" %source% -o %dest%


TOC of the extracted CD

Track | Start | Length | Start sector | End sector
––––––––––––––––––––––––––––-
1 | 0:00.00 | 8:44.17 | 0 | 39316
2 | 8:44.17 | 8:16.09 | 39317 | 76525
3 | 17:00.26 | 9:12.50 | 76526 | 117975
4 | 26:13.01 | 10:26.41 | 117976 | 164966
5 | 36:39.42 | 9:41.48 | 164967 | 208589
6 | 46:21.15 | 11:16.17 | 208590 | 259306
7 | 57:37.32 | 10:30.23 | 259307 | 306579


Track 1

Filename A:\RIP\Toots Thielemans presents Thierry Lang Trio (2019)[FLAC]\01 - The Days of Wine and Roses.wav

Pre-gap length 0:00:02.00

Peak level 87.1 %
Extraction speed 1.3 X
Track quality 99.9 %
Test CRC 7F4178F4
Copy CRC 7F4178F4
Track not present in AccurateRip database
Copy OK

Track 2

Filename A:\RIP\Toots Thielemans presents Thierry Lang Trio (2019)[FLAC]\02 - A Weaver of Dreams.wav

Peak level 87.8 %
Extraction speed 1.6 X
Track quality 100.0 %
Test CRC F5E4EB24
Copy CRC F5E4EB24
Track not present in AccurateRip database
Copy OK

Track 3

Filename A:\RIP\Toots Thielemans presents Thierry Lang Trio (2019)[FLAC]\03 - I Do it for your Love.wav

Peak level 77.3 %
Extraction speed 1.8 X
Track quality 100.0 %
Test CRC 87B88E8A
Copy CRC 87B88E8A
Track not present in AccurateRip database
Copy OK

Track 4

Filename A:\RIP\Toots Thielemans presents Thierry Lang Trio (2019)[FLAC]\04 - Stella by Starlight.wav

Peak level 97.8 %
Extraction speed 2.0 X
Track quality 100.0 %
Test CRC C20D53DF
Copy CRC C20D53DF
Track not present in AccurateRip database
Copy OK

Track 5

Filename A:\RIP\Toots Thielemans presents Thierry Lang Trio (2019)[FLAC]\05 - My One and Only Love.wav

Peak level 77.6 %
Extraction speed 2.1 X
Track quality 99.9 %
Test CRC 6CA17428
Copy CRC 6CA17428
Track not present in AccurateRip database
Copy OK

Track 6

Filename A:\RIP\Toots Thielemans presents Thierry Lang Trio (2019)[FLAC]\06 - Estate.wav

Peak level 83.7 %
Extraction speed 2.4 X
Track quality 100.0 %
Test CRC C046595A
Copy CRC C046595A
Track not present in AccurateRip database
Copy OK

Track 7

Filename A:\RIP\Toots Thielemans presents Thierry Lang Trio (2019)[FLAC]\07 - Sno' Peas.wav

Peak level 91.2 %
Extraction speed 2.6 X
Track quality 100.0 %
Test CRC 9A02A55C
Copy CRC 9A02A55C
Track not present in AccurateRip database
Copy OK


None of the tracks are present in the AccurateRip database

No errors occurred

End of status report

–– CUETools DB Plugin V2.1.6

[CTDB TOCID: f5BaQLDieySH8xrptATBJORNCpY-] disk not present in database
Submit result: f5BaQLDieySH8xrptATBJORNCpY- has been uploaded


==== Log checksum 2175550F56A8126BF5D0F698A801F995FDA98C31E88A170480517F05A3CB2174 ====

Thanks to the Original ripper !