Tags
Language
Tags

Smithsonian Ch. - America's Wild Border: Northern Exposure (2021)

Posted By: Tutorial
1080p (FullHD) / HDTV
Smithsonian Ch. - America's Wild Border: Northern Exposure (2021)

Smithsonian Ch. - America's Wild Border: Northern Exposure (2021)
HDTV | 1920 x 1080 | .MP4/AVC @ 4503 Kbps | 44 min 3 s | 1.44 GB
Audio: English AAC 160 Kbps, 2 channels | Subs: English
Genre: Documentary

The frontier between America and Canada is the longest on Earth, spanning 5,525 miles and crossing a wide range of habitats and weather extremes. The animals that call this stretch of land home are equally diverse, from the lynx and red-tailed hawks of Washington and British
Columbia to the puffins and lobsters of the Atlantic Ocean's Gray Zone to all the prairie and grassland creatures in between. Take an in-depth look at life in the northern borderlands and see how its many species adapt, survive, and thrive here over the course of a year.

General
Complete name : Americas.Wild.Border.Northern.Exposure..mp4
Format : MPEG-4
Format profile : Base Media
Codec ID : isom (isom)
File size : 1.44 GiB
Duration : 44 min 3 s
Overall bit rate mode : Variable
Overall bit rate : 4 666 kb/s
Encoded date : UTC 2021-05-05 14:01:09
Tagged date : UTC 2021-05-05 14:01:09

Video
ID : 1
Format : AVC
Format/Info : Advanced Video Codec
Format profile : High@L4.1
Format settings : CABAC / 4 Ref Frames
Format settings, CABAC : Yes
Format settings, Reference frames : 4 frames
Codec ID : avc1
Codec ID/Info : Advanced Video Coding
Duration : 44 min 3 s
Bit rate : 4 503 kb/s
Maximum bit rate : 10.4 Mb/s
Width : 1 920 pixels
Height : 1 080 pixels
Display aspect ratio : 16:9
Frame rate mode : Constant
Frame rate : 23.976 (24000/1001) FPS
Standard : Component
Color space : YUV
Chroma subsampling : 4:2:0
Bit depth : 8 bits
Scan type : Progressive
Bits/(Pixel*Frame) : 0.091
Stream size : 1.39 GiB (97%)
Title : Americas.Wild.Border.Northern.Exposure.1080p.HDTV.x264.AAC..org.mp4
Tagged date : UTC 2021-05-05 14:02:01
Color range : Limited
Codec configuration box : avcC

Audio
ID : 2
Format : AAC LC
Format/Info : Advanced Audio Codec Low Complexity
Codec ID : mp4a-40-2
Duration : 44 min 3 s
Bit rate mode : Variable
Bit rate : 160 kb/s
Maximum bit rate : 168 kb/s
Channel(s) : 2 channels
Channel layout : L R
Sampling rate : 48.0 kHz
Frame rate : 46.875 FPS (1024 SPF)
Compression mode : Lossy
Stream size : 50.6 MiB (3%)
Title : Americas.Wild.Border.Northern.Exposure.1080p.HDTV.x264.AAC..org.mp4
Language : English
Encoded date : UTC 2021-05-05 14:01:45
Tagged date : UTC 2021-05-05 14:02:01

Text
ID : 3
Format : Timed Text
Codec ID : tx3g
Duration : 44 min 1 s
Bit rate mode : Variable
Bit rate : 85 b/s
Stream size : 27.4 KiB (0%)
Title : Americas.Wild.Border.Northern.Exposure.1080p.HDTV.x264.AAC..org.srt
Forced : No
Encoded date : UTC 2021-05-05 14:02:01
Tagged date : UTC 2021-05-05 14:02:01
Screenshots

Smithsonian Ch. - America's Wild Border: Northern Exposure (2021)

Smithsonian Ch. - America's Wild Border: Northern Exposure (2021)

Welcome to my blog - daily update!

Smithsonian Ch. - America's Wild Border: Northern Exposure (2021)