Tags
Language
Tags

Not Now, Comrade (1976)

Posted By: Tavaz
1080p (FullHD) / BDRip IMDb
Not Now, Comrade (1976)

Not Now, Comrade (1976)
BDRip | MKV | 1888x1080 | English | H264 @ 11977 kbps | FLAC @ 346 kbps | 1 h 29 min | 7.71 GiB
Subtitles: English
Genre: Comedy

Not Now, Comrade tells the story of Rudi, a Russian ballet star who defects to the West, and the chaos that befalls those who try to help him… not least London stripper Barbara, with whom he decides to take refuge!

d0dc08f570c849d10010d59d428eb1ce.mkv (7.7 GB)



General
Unique ID : 338632874682880565196342280157860933366 (0xFEC251C0F579CD9C15A385E7F6A72EF6)
Complete name : ./d0dc08f570c849d10010d59d428eb1ce.mkv
Format : Matroska
Format version : Version 4 / Version 2
File size : 7.71 GiB
Duration : 1 h 29 min
Overall bit rate mode : Variable
Overall bit rate : 12.3 Mb/s
Movie name : Not Now, Comrade [1976] 1080p BluRay - HJ
Encoded date : UTC 2021-04-04 22:01:00
Writing application : mkvmerge v51.0.0 ('I Wish') 64-bit
Writing library : libebml v1.4.0 + libmatroska v1.6.2

Video
ID : 1
Format : AVC
Format/Info : Advanced Video Codec
Format profile : High@L4.1
Format settings : CABAC / 4 Ref Frames
Format settings, CABAC : Yes
Format settings, RefFrames : 4 frames
Codec ID : V_MPEG4/ISO/AVC
Duration : 1 h 29 min
Bit rate : 12.0 Mb/s
Width : 1 888 pixels
Height : 1 080 pixels
Display aspect ratio : 16:9
Frame rate mode : Constant
Frame rate : 24.000 FPS
Color space : YUV
Chroma subsampling : 4:2:0
Bit depth : 8 bits
Scan type : Progressive
Bits/(Pixel*Frame) : 0.245
Stream size : 7.50 GiB (97%)
Writing library : x264 core 157 r2935 545de2f
Encoding settings : cabac=1 / ref=4 / deblock=1:-3:-3 / analyse=0x3:0x133 / me=umh / subme=10 / psy=1 / psy_rd=1.00:0.00 / mixed_ref=1 / me_range=32 / chroma_me=1 / trellis=2 / 8x8dct=1 / cqm=0 / deadzone=21,11 / fast_pskip=0 / chroma_qp_offset=-2 / threads=34 / lookahead_threads=8 / sliced_threads=0 / nr=0 / decimate=0 / interlaced=0 / bluray_compat=0 / constrained_intra=0 / bframes=16 / b_pyramid=2 / b_adapt=2 / b_bias=0 / direct=3 / weightb=1 / open_gop=0 / weightp=2 / keyint=240 / keyint_min=24 / scenecut=40 / intra_refresh=0 / rc_lookahead=60 / rc=crf / mbtree=0 / crf=20.5 / qcomp=0.60 / qpmin=0 / qpmax=69 / qpstep=4 / vbv_maxrate=62500 / vbv_bufsize=78125 / crf_max=0.0 / nal_hrd=none / filler=0 / ip_ratio=1.40 / pb_ratio=1.30 / aq=2:1.00
Default : Yes
Forced : No
Color range : Limited
Color primaries : BT.709
Transfer characteristics : BT.709
Matrix coefficients : BT.709

Audio
ID : 2
Format : FLAC
Format/Info : Free Lossless Audio Codec
Codec ID : A_FLAC
Duration : 1 h 29 min
Bit rate mode : Variable
Bit rate : 346 kb/s
Channel(s) : 2 channels
Channel positions : Front: L R
Sampling rate : 48.0 kHz
Frame rate : 11.719 FPS (4096 SPF)
Bit depth : 16 bits
Stream size : 222 MiB (3%)
Writing library : libFLAC 1.2.1 (UTC 2007-09-17)
Language : English
Default : Yes
Forced : No

Text
ID : 3
Format : UTF-8
Codec ID : S_TEXT/UTF8
Codec ID/Info : UTF-8 Plain Text
Duration : 1 h 28 min
Bit rate : 70 b/s
Count of elements : 2192
Stream size : 45.9 KiB (0%)
Title : SDH
Language : English
Default : No
Forced : No

Menu
00:00:00.000 : :Chapter 1
00:08:03.083 : :Chapter 2
00:13:12.167 : :Chapter 3
00:18:49.167 : :Chapter 4
00:24:57.917 : :Chapter 5
00:33:17.250 : :Chapter 6
00:41:08.583 : :Chapter 7
00:48:03.042 : :Chapter 8
00:55:07.583 : :Chapter 9
01:05:58.208 : :Chapter 10
01:13:31.458 : :Chapter 11
01:20:40.917 : :Chapter 12





Not Now, Comrade (1976)


Not Now, Comrade (1976)


Not Now, Comrade (1976)


Not Now, Comrade (1976)


Not Now, Comrade (1976)