Tags
Language
Tags
April 2024
Su Mo Tu We Th Fr Sa
31 1 2 3 4 5 6
7 8 9 10 11 12 13
14 15 16 17 18 19 20
21 22 23 24 25 26 27
28 29 30 1 2 3 4

Dainanaouji - S01E01

Posted By: Otaku
Dainanaouji - S01E01

Dainanaouji - S01E01
MKV | 1920x1080 | 日本語 | H265 @ 2185 kbps | AAC @ 128.0 kbps | 23 min 50 s | 407 MiB
Subtitles: Deutsch, Français, Español, Русский, العربية, Italiano, English, Português



[Judas] Ookami to Kounshinryou (2024) - S01E01.mkv (218.6 MB)
[Judas] Kami wa Game ni Uete Iru - S01E01.mkv (296.0 MB)
[Judas] Dainanaouji - S01E01.mkv (407.0 MB)



General
Unique ID : 197108436337176104922313181328400304328 (0x9449B4384012CA004327F636ACBDC8C8)
Complete name : ./[Judas] Dainanaouji - S01E01.mkv
Format : Matroska
Format version : Version 4
File size : 407 MiB
Duration : 23 min 50 s
Overall bit rate : 2 387 kb/s
Encoded date : UTC 2024-04-02 03:18:48
Writing application : mkvmerge v82.0 ('I'm The President') 64-bit
Writing library : libebml v1.4.5 + libmatroska v1.7.1 / Lavf58.76.100
Attachments : AdLibBT.ttf / AdLibRg.ttf / arialbd_1.ttf / arialbi_1.ttf / ariali_1.ttf / ARIALNB.TTF / arial_1.ttf / ariblk_1.ttf / balonxb.ttf / BelweBdBTBold.ttf / BRITANIC.TTF / CHILLER.TTF / comicbd_0.ttf / comici_0.ttf / comicz_0.ttf / comic_0.ttf / consolab_0.ttf / COOPBL.ttf / courbd_1.ttf / cour_1.ttf / DejaVuSans-Bold.ttf / DejaVuSansCondensed-Bold.ttf / domcasn.ttf / ebrimabd_0.ttf / Eraser.ttf / FirstGrader.ttf / Freeh471.ttf / FRHND471.TTF / Garamond Bold font.ttf / georgiab_0.ttf / georgiai_0.ttf / georgiaz_0.ttf / georgia_0.ttf / impact_0.ttf / Impress.ttf / JAPAB_.TTF / Rubik-Bold.ttf / Rubik-Light.ttf / Rubik-Regular.ttf / segoeprb_0.ttf / SQR721KN.TTF / SqueakyChalkSound.ttf / STAC222N.TTF / Stacc222.ttf / staccato 555 bt.ttf / Swis721_BT_Bold.ttf / tahomabd_0.ttf / tahoma_1.ttf / timesbd_1.ttf / timesbi_1.ttf / timesi_1.ttf / times_3.ttf / Tonic Regular.ttf / trebucbd_0.ttf / trebucbi_0.ttf / trebucit_0.ttf / trebuc_0.ttf / VAGRoundedBT.ttf / verdanab_0.ttf / verdanaz_0.ttf / verdana_0.ttf / AdobeArabic-Bold.otf / AdobeArabic-BoldItalic.otf / AdobeArabic-Italic.otf / AdobeArabic-Regular.otf

Video
ID : 1
Format : HEVC
Format/Info : High Efficiency Video Coding
Format profile : Main 10@L5@Main
Codec ID : V_MPEGH/ISO/HEVC
Duration : 23 min 50 s
Bit rate : 2 186 kb/s
Width : 1 920 pixels
Height : 1 080 pixels
Display aspect ratio : 16:9
Frame rate mode : Constant
Frame rate : 23.976 (24000/1001) FPS
Color space : YUV
Chroma subsampling : 4:2:0
Bit depth : 10 bits
Bits/(Pixel*Frame) : 0.044
Stream size : 373 MiB (92%)
Title : [Judas] x265 10b
Writing library : x265 3.5+19-8003e4382:[Windows][MSVC 1929][64 bit] 10bit
Encoding settings : cpuid=1111039 / frame-threads=5 / numa-pools=+ / wpp / pmode / no-pme / no-psnr / no-ssim / log-level=2 / csv / csv-log-level=0 / input-csp=1 / input-res=1920x1080 / interlace=0 / total-frames=34287 / level-idc=0 / high-tier=1 / uhd-bd=0 / ref=6 / no-allow-non-conformance / no-repeat-headers / annexb / no-aud / no-eob / no-eos / no-hrd / info / hash=0 / no-temporal-layers / open-gop / min-keyint=23 / keyint=250 / gop-lookahead=0 / bframes=8 / b-adapt=2 / b-pyramid / bframe-bias=0 / rc-lookahead=250 / lookahead-slices=4 / scenecut=40 / no-hist-scenecut / radl=0 / no-splice / no-intra-refresh / ctu=64 / min-cu-size=8 / rect / no-amp / max-tu-size=32 / tu-inter-depth=4 / tu-intra-depth=4 / limit-tu=0 / rdoq-level=2 / dynamic-rd=0.00 / no-ssim-rd / signhide / no-tskip / nr-intra=0 / nr-inter=0 / no-constrained-intra / strong-intra-smoothing / max-merge=5 / limit-refs=0 / limit-modes / me=3 / subme=4 / merange=57 / temporal-mvp / no-frame-dup / no-hme / weightp / weightb / no-analyze-src-pics / deblock=-1:-1 / sao / no-sao-non-deblock / rd=4 / selective-sao=4 / no-early-skip / rskip / no-fast-intra / no-tskip-fast / no-cu-lossless / b-intra / no-splitrd-skip / rdpenalty=0 / psy-rd=0.60 / psy-rdoq=1.20 / no-rd-refine / no-lossless / cbqpoffs=-1 / crqpoffs=-1 / rc=crf / crf=22.5 / qcomp=0.65 / qpstep=4 / stats-write=0 / stats-read=0 / ipratio=1.40 / pbratio=1.30 / aq-mode=3 / aq-strength=0.65 / cutree / zone-count=0 / no-strict-cbr / qg-size=32 / no-rc-grain / qpmax=69 / qpmin=0 / no-const-vbv / sar=0 / overscan=0 / videoformat=5 / range=0 / colorprim=2 / transfer=2 / colormatrix=2 / chromaloc=0 / display-window=0 / cll=0,0 / min-luma=0 / max-luma=1023 / log2-max-poc-lsb=8 / vui-timing-info / vui-hrd-info / slices=1 / no-opt-qp-pps / no-opt-ref-list-length-pps / no-multi-pass-opt-rps / scenecut-bias=0.05 / hist-threshold=0.03 / no-opt-cu-delta-qp / no-aq-motion / no-hdr10 / no-hdr10-opt / no-dhdr10-opt / no-idr-recovery-sei / analysis-reuse-level=0 / analysis-save-reuse-level=0 / analysis-load-reuse-level=0 / scale-factor=0 / refine-intra=0 / refine-inter=0 / refine-mv=1 / refine-ctu-distortion=0 / no-limit-sao / ctu-info=0 / no-lowpass-dct / refine-analysis-type=0 / copy-pic=1 / max-ausize-factor=1.0 / no-dynamic-refine / no-single-sei / no-hevc-aq / no-svt / no-field / qp-adaptation-range=1.00 / scenecut-aware-qp=0conformance-window-offsets / right=0 / bottom=0 / decoder-max-rate=0 / no-vbv-live-multi-pass
Language : Japanese
Default : Yes
Forced : No

Audio
ID : 2
Format : AAC LC
Format/Info : Advanced Audio Codec Low Complexity
Codec ID : A_AAC-2
Duration : 23 min 50 s
Bit rate : 128 kb/s
Channel(s) : 2 channels
Channel layout : L R
Sampling rate : 44.1 kHz
Frame rate : 43.066 FPS (1024 SPF)
Compression mode : Lossy
Stream size : 21.8 MiB (5%)
Title : Japanese
Language : Japanese
Default : Yes
Forced : No

Text #1
ID : 3
Format : ASS
Codec ID : S_TEXT/ASS
Codec ID/Info : Advanced Sub Station Alpha
Duration : 23 min 25 s
Bit rate : 136 b/s
Frame rate : 0.222 FPS
Count of elements : 312
Compression mode : Lossless
Stream size : 23.4 KiB (0%)
Title : English
Language : English
Default : No
Forced : No

Text #2
ID : 4
Format : ASS
Codec ID : S_TEXT/ASS
Codec ID/Info : Advanced Sub Station Alpha
Duration : 23 min 25 s
Bit rate : 160 b/s
Frame rate : 0.230 FPS
Count of elements : 323
Compression mode : Lossless
Stream size : 27.5 KiB (0%)
Title : French
Language : French
Default : No
Forced : No

Text #3
ID : 5
Format : ASS
Codec ID : S_TEXT/ASS
Codec ID/Info : Advanced Sub Station Alpha
Duration : 23 min 25 s
Bit rate : 149 b/s
Frame rate : 0.252 FPS
Count of elements : 354
Compression mode : Lossless
Stream size : 25.6 KiB (0%)
Title : German
Language : German
Default : No
Forced : No

Text #4
ID : 6
Format : ASS
Codec ID : S_TEXT/ASS
Codec ID/Info : Advanced Sub Station Alpha
Duration : 23 min 25 s
Bit rate : 142 b/s
Frame rate : 0.233 FPS
Count of elements : 328
Compression mode : Lossless
Stream size : 24.5 KiB (0%)
Title : Italian
Language : Italian
Default : No
Forced : No

Text #5
ID : 7
Format : ASS
Codec ID : S_TEXT/ASS
Codec ID/Info : Advanced Sub Station Alpha
Duration : 23 min 25 s
Bit rate : 128 b/s
Frame rate : 0.214 FPS
Count of elements : 301
Compression mode : Lossless
Stream size : 22.1 KiB (0%)
Title : Spanish [ESP]
Language : Spanish
Default : No
Forced : No

Text #6
ID : 8
Format : ASS
Codec ID : S_TEXT/ASS
Codec ID/Info : Advanced Sub Station Alpha
Duration : 23 min 25 s
Bit rate : 129 b/s
Frame rate : 0.215 FPS
Count of elements : 302
Compression mode : Lossless
Stream size : 22.2 KiB (0%)
Title : Spanish [LAT]
Language : Spanish
Default : No
Forced : No

Text #7
ID : 9
Format : ASS
Codec ID : S_TEXT/ASS
Codec ID/Info : Advanced Sub Station Alpha
Duration : 23 min 25 s
Bit rate : 145 b/s
Frame rate : 0.222 FPS
Count of elements : 312
Compression mode : Lossless
Stream size : 24.9 KiB (0%)
Title : Portuguese [BR]
Language : Portuguese
Default : No
Forced : No

Text #8
ID : 10
Format : ASS
Codec ID : S_TEXT/ASS
Codec ID/Info : Advanced Sub Station Alpha
Duration : 23 min 25 s
Bit rate : 167 b/s
Frame rate : 0.226 FPS
Count of elements : 318
Compression mode : Lossless
Stream size : 28.8 KiB (0%)
Title : Russian
Language : Russian
Default : No
Forced : No

Text #9
ID : 11
Format : ASS
Codec ID : S_TEXT/ASS
Codec ID/Info : Advanced Sub Station Alpha
Duration : 23 min 25 s
Bit rate : 157 b/s
Frame rate : 0.222 FPS
Count of elements : 312
Compression mode : Lossless
Stream size : 27.0 KiB (0%)
Title : Arabic
Language : Arabic
Default : No
Forced : No





Dainanaouji - S01E01


Dainanaouji - S01E01


Dainanaouji - S01E01


Dainanaouji - S01E01