Paul Buskirk - Banjo but Beautiful (1970) [Official Digital Download 24/96]

Posted By: El Misha
Paul Buskirk - Banjo but Beautiful (1970) [Official Digital Download 24/96]

Paul Buskirk - Banjo but Beautiful (1970)
FLAC (tracks) 24-bit/96 kHz | Time - 28:31 | 623 MB
Studio Master, Official Digital Download | Artwork: Front cover

This talented picker is a threat on almost every instrument with strings. He is an accomplished guitarist, mandolinist, and banjoist, and fans of Paul Buskirk's various projects can bicker amongst themselves about what order of importance to list these instruments in. Tracks:love theme from romeo and juliet-sunrise sunset-wouldn't it be lovely-till there was you-lara's theme-mr. wonderful-yesterday-good morning starshine-body and soul-all the things you are-quentin's theme



Tracklist:

01. Paul Buskirk - Mr. Wonderful
02. Paul Buskirk - Yesterday
03. Paul Buskirk - Good Morning Starshine
04. Paul Buskirk - Body and Soul
05. Paul Buskirk - All the Things You Are
06. Paul Buskirk - Quentin's Theme
07. Paul Buskirk - Love Theme from "Romeo and Juliet"
08. Paul Buskirk - Sunrise, Sunset
09. Paul Buskirk - Wouldn't It Be Loverly
10. Paul Buskirk - Till There Was You
11. Paul Buskirk - Lara's Theme

foobar2000 1.4 / Dynamic Range Meter 1.1.1
log date: 2020-12-25 08:46:14

––––––––––––––––––––––––––––––––––––––––
Analyzed: Paul Buskirk / Banjo but Beautiful
––––––––––––––––––––––––––––––––––––––––

DR Peak RMS Duration Track
––––––––––––––––––––––––––––––––––––––––
DR11 -0.56 dB -14.24 dB 2:57 01-Mr. Wonderful
DR11 -0.78 dB -15.43 dB 2:26 02-Yesterday
DR11 -0.80 dB -14.59 dB 2:39 03-Good Morning Starshine
DR12 -3.09 dB -17.06 dB 2:47 04-Body and Soul
DR11 -0.55 dB -15.22 dB 2:14 05-All the Things You Are
DR11 -0.55 dB -13.50 dB 2:29 06-Quentin's Theme
DR11 -0.55 dB -14.87 dB 2:33 07-Love Theme from "Romeo and Juliet"
DR12 -1.14 dB -16.26 dB 2:57 08-Sunrise, Sunset
DR13 -0.56 dB -16.16 dB 2:15 09-Wouldn't It Be Loverly
DR12 -1.22 dB -17.38 dB 2:44 10-Till There Was You
DR11 -0.55 dB -16.12 dB 2:34 11-Lara's Theme
––––––––––––––––––––––––––––––––––––––––

Number of tracks: 11
Official DR value: DR11

Samplerate: 96000 Hz
Channels: 2
Bits per sample: 24
Bitrate: 3088 kbps
Codec: FLAC
================================================================================




Thanks to the Original customer!